<?xml version="1.0" standalone="no"?>
<!DOCTYPE svg PUBLIC "-//W3C//DTD SVG 1.1//EN" "http://www.w3.org/Graphics/SVG/1.1/DTD/svg11.dtd" >
<svg xmlns="http://www.w3.org/2000/svg">
<metadata>Generated by IcoMoon</metadata>
<defs>
<font id="icomoon" horiz-adv-x="1024">
<font-face units-per-em="1024" ascent="960" descent="-64" />
<missing-glyph horiz-adv-x="1024" />
<glyph unicode="&#x20;" horiz-adv-x="512" d="" />
<glyph unicode="&#xe900;" glyph-name="arrow-left" d="M256 532.48h768v-170.667h-768v170.667zM256 532.48l237.141 230.4c11.449 11.61 18.52 27.564 18.52 45.169 0 23.552-12.655 44.149-31.535 55.361l-0.297 0.163c-6.16 4.001-13.241 7.465-20.737 10.037l-0.682 0.203h-62.037c-14.093-4.204-26.158-11.579-35.835-21.328l-0.005-0.005-339.541-357.547c-4.973-5.008-9.007-10.956-11.809-17.554l-0.138-0.366c-6.147-9.128-9.904-20.314-10.154-32.363l-0.001-0.064c1.808-27.17 18.649-50.009 42.212-60.408l0.454-0.179 318.805-335.36c17.252-16.643 40.765-26.897 66.673-26.897 19.652 0 37.925 5.9 53.147 16.024l-0.353-0.221c19.178 11.376 31.832 31.972 31.832 55.524 0 17.605-7.071 33.559-18.527 45.176l0.007-0.007-237.141 223.573z" />
<glyph unicode="&#xe901;" glyph-name="arrow-right" d="M768 363.52h-768v170.667h768v-170.667zM768 363.52l-237.141-230.4c-11.449-11.61-18.52-27.564-18.52-45.169 0-23.552 12.655-44.149 31.535-55.361l0.297-0.163c6.16-4.001 13.241-7.465 20.737-10.037l0.682-0.203h62.037c14.093 4.204 26.158 11.579 35.835 21.328l0.005 0.005 339.541 357.547c4.973 5.008 9.007 10.956 11.809 17.554l0.138 0.366c6.147 9.128 9.904 20.314 10.154 32.363l0.001 0.064c-1.808 27.17-18.649 50.009-42.212 60.408l-0.454 0.179-318.805 335.36c-17.252 16.643-40.765 26.897-66.673 26.897-19.652 0-37.925-5.9-53.147-16.024l0.353 0.221c-19.178-11.376-31.832-31.972-31.832-55.524 0-17.605 7.071-33.559 18.527-45.176l-0.007 0.007 237.141-223.573z" />
<glyph unicode="&#xe902;" glyph-name="barrier" d="M32 0h32v-32h-32v32zM847.792 594.496c-1.249 7.694-7.842 13.498-15.791 13.504h-32.001v50.272c27.823 7.359 48 32.307 48 61.968 0 35.346-28.654 64-64 64s-64-28.654-64-64c0-29.66 20.177-54.608 47.553-61.867l0.447-0.101v-50.272h-416v50.272c27.823 7.359 48 32.307 48 61.968 0 35.346-28.654 64-64 64s-64-28.654-64-64c0-29.66 20.177-54.608 47.553-61.867l0.447-0.101v-50.272h-80c-7.95-0.006-14.543-5.81-15.78-13.412l-0.012-0.092-93.872-594.496h-34.336v-32h896v32h-50.336zM752 720c0 17.673 14.327 32 32 32s32-14.327 32-32c0-17.673-14.327-32-32-32v0c-17.673 0-32 14.327-32 32v0zM304 720c0 17.673 14.327 32 32 32s32-14.327 32-32c0-17.673-14.327-32-32-32v0c-17.673 0-32 14.327-32 32v0zM352.192 288h60.496l-15.168-96h-30.16zM846.112 400h-60.512l15.152 96h30.176zM753.312 400h-45.392l15.152 96h45.344zM675.6 400h-45.392l15.152 96h45.328zM597.888 400h-45.392l15.152 96h45.344zM520.176 400h-45.392l15.152 96h45.328zM442.4 400h-45.344l15.168 96h45.376zM364.672 400h-30.16l-15.168 96h60.496zM851.2 368l7.584-48h-511.584l-7.568 48zM445.072 288h45.328l-15.2-96h-45.296zM522.768 288h45.344l-15.168-96h-45.328zM600.496 288h45.328l-15.152-96h-45.344zM678.208 288h45.328l-15.152-96h-45.344zM755.92 288h45.328l-15.152-96h-45.296zM833.6 288h30.176l15.152-96h-60.48zM818.304 576l7.568-48h-511.568l-7.584 48zM187.904 160h116.096v32h-110.96l15.152 96h79.808v32h-74.752l7.584 48h51.168v32h-46.112l15.152 96h30.96v32h-25.904l7.568 48h20.672l90.944-576h-202.56zM397.504 0l-25.104 160h511.616l25.264-160zM496 672h208v-32h-208v32zM902.893 445.49l31.591 5 41.354-261.308-31.591-5-41.354 261.308z" />
<glyph unicode="&#xe903;" glyph-name="brick" d="M32 0h32v-32h-32v32zM432 832h416v-32h-416v32zM368 832h32v-32h-32v32zM928 368c0 8.837-7.163 16-16 16v0h-64v80c0 8.837-7.163 16-16 16v0h-96v64h96c8.837 0 16 7.163 16 16v0 80h96c8.837 0 16 7.163 16 16v0 96c0 8.837-7.163 16-16 16v0h-672c-8.837 0-16-7.163-16-16v0-96c0-8.837 7.163-16 16-16v0h96v-64h-320c-8.837 0-16-7.163-16-16v0-96c0-8.837 7.163-16 16-16v0h96v-80c0-8.837 7.163-16 16-16v0h96v-64h-96c-8.837 0-16-7.163-16-16v0-96c0-8.837 7.163-16 16-16v0h96v-64h-96c-8.837 0-16-7.163-16-16v0-80h-48v-32h896v32h-64zM896 0h-384v168.64l106.416 91.2c0.144 0.128 0.192 0.32 0.336 0.448 1.105 1.082 2.052 2.319 2.806 3.678l0.042 0.082c0.32 0.42 0.647 0.9 0.95 1.397l0.042 0.075c0.881 1.903 1.399 4.13 1.408 6.477v80.003h272zM400 256h164.8l-74.72-64h-90.080zM288 544h192v-64h-192zM400 448h192v-64h-192zM512 352h80v-64h-80zM816 384h-192v64h192zM704 480h-192v64h192zM816 576h-192v64h192zM928 672h-192v64h192zM704 672h-192v64h192zM288 736h192v-64h-192zM400 640h192v-64h-192zM64 544h192v-64h-192zM176 448h192v-64h-192zM288 352h192v-64h-192zM176 256h192v-64h-192zM288 160h192v-64h-192zM176 64h192v-64h-192zM400 64h80v-64h-80zM960 320h32v-224h-32v224z" />
<glyph unicode="&#xe904;" glyph-name="brush" d="M301.248 278.64l22.624 22.624-57.184 57.152-178.624 160.768-21.408-23.776 178.016-160.192 56.576-56.576zM391.761 731.18l22.623 22.631 22.631-22.623-22.623-22.631-22.631 22.623zM380.448 289.952l67.888-67.872c2.895-2.894 6.895-4.685 11.312-4.685 3.182 0 6.148 0.929 8.64 2.531l-0.064-0.038 113.6 72.304 251.2-251.2c11.582-11.582 27.582-18.746 45.256-18.746 35.347 0 64.002 28.655 64.002 64.002 0 17.674-7.164 33.674-18.746 45.256v0l-251.2 251.2 72.304 113.6c1.567 2.431 2.499 5.399 2.499 8.586 0 4.42-1.793 8.422-4.691 11.318l-158.096 158.096-203.328 225.984c-2.835 3.153-6.881 5.169-11.399 5.311l-0.025 0.001c-0.079 0.001-0.172 0.002-0.265 0.002-4.466 0-8.514-1.79-11.465-4.692l-294.206-294.174c-2.894-2.895-4.684-6.894-4.684-11.311 0-4.712 2.037-8.948 5.278-11.876l0.014-0.012 225.968-203.36zM638.48 389.056c-1.567-2.431-2.499-5.399-2.499-8.586 0-4.42 1.793-8.422 4.691-11.318l260.208-260.208c5.794-5.791 9.377-13.793 9.377-22.632s-3.584-16.841-9.377-22.632v0c-5.875-5.608-13.85-9.059-22.632-9.059s-16.757 3.451-22.645 9.071l0.013-0.012-260.208 260.208c-2.896 2.898-6.898 4.691-11.318 4.691-3.186 0-6.155-0.931-8.649-2.537l0.063 0.038-113.6-72.304-47.504 47.488 248.896 248.912 47.488-47.488zM391.76 323.888l-67.888 67.888 248.928 248.912 67.872-67.888zM131.552 629.36l90.496-90.496 22.624 22.624-90.496 90.496 22.624 22.64 56.56-56.56 22.64 22.624-56.576 56.56 67.888 67.888 22.624-22.64 22.624 22.624-22.624 22.64 22.624 22.624 56.576-56.576 22.624 22.624-56.576 56.576 33.344 33.328 182.208-202.448-250.064-250.064-202.448 182.208zM323.881 256.029l22.627 22.627 22.627-22.627-22.627-22.627-22.627 22.627zM742.482 357.841l22.627 22.627 169.706-169.706-22.627-22.627-169.706 169.706z" />
<glyph unicode="&#xe905;" glyph-name="bulldozer" d="M656 80c0 26.51-21.49 48-48 48s-48-21.49-48-48c0-26.51 21.49-48 48-48v0c26.51 0 48 21.49 48 48v0zM592 80c0 8.837 7.163 16 16 16s16-7.163 16-16c0-8.837-7.163-16-16-16v0c-8.837 0-16 7.163-16 16v0zM480 128c-26.51 0-48-21.49-48-48s21.49-48 48-48c26.51 0 48 21.49 48 48v0c0 26.51-21.49 48-48 48v0zM480 64c-8.837 0-16 7.163-16 16s7.163 16 16 16c8.837 0 16-7.163 16-16v0c0-8.837-7.163-16-16-16v0zM352 128c-26.51 0-48-21.49-48-48s21.49-48 48-48c26.51 0 48 21.49 48 48v0c0 26.51-21.49 48-48 48v0zM352 64c-8.837 0-16 7.163-16 16s7.163 16 16 16c8.837 0 16-7.163 16-16v0c0-8.837-7.163-16-16-16v0zM224 128c-26.51 0-48-21.49-48-48s21.49-48 48-48c26.51 0 48 21.49 48 48v0c0 26.51-21.49 48-48 48v0zM224 64c-8.837 0-16 7.163-16 16s7.163 16 16 16c8.837 0 16-7.163 16-16v0c0-8.837-7.163-16-16-16v0zM32 0h32v-32h-32v32zM709.040 32h170.96c3.044 0.001 5.889 0.852 8.311 2.328l-0.071-0.040 80 48c4.681 2.848 7.76 7.922 7.76 13.715 0 1.909-0.334 3.739-0.947 5.436l0.035-0.111-96 272c-2.261 6.27-8.16 10.672-15.087 10.672 0 0-0.001 0-0.001 0h-64c-8.837 0-16-7.163-16-16v0-25.376l-144 144v41.376c0 8.837-7.163 16-16 16v0h-64c-8.837 0-16-7.163-16-16v0-112h-83.52l-24 96h11.52c8.837 0 16 7.163 16 16v0 64c0 8.837-7.163 16-16 16v0h-176c-0.001 0-0.002 0-0.003 0-7.158 0-13.218-4.7-15.262-11.183l-0.031-0.113-60.512-196.704h-4.192v112c0 8.837-7.163 16-16 16v0h-16v16c0 35.346-28.654 64-64 64v0-32c17.673 0 32-14.327 32-32v0-16h-16c-8.837 0-16-7.163-16-16v0-112h-16c-8.837 0-16-7.163-16-16v0-96c0.001-4.418 1.792-8.417 4.688-11.312l53.376-53.392c-14.97-10.705-27.791-23.154-38.547-37.263l-0.317-0.433 25.6-19.2c23.306 31.055 58.419 52.159 98.554 56.63l0.646 0.058v-32.368c-54.573-7.999-96.001-54.49-96.001-110.657 0-31.379 12.93-59.738 33.754-80.040l0.023-0.023h-49.776v-32h896v32h-305.776c9.208 9.031 16.854 19.613 22.524 31.33l0.292 0.67zM592 224v-32h-352v32zM352 384h128v-128h-57.376l-70.624 70.624zM624 223.088c40.783-4.521 75.899-25.627 98.935-56.319l0.265-0.369 25.6 19.2c-12.471 16.542-27.298 30.499-44.142 41.654l-0.658 0.41v69.712l80-80v-89.376h-74.96c-16.126 33.275-47.294 57.059-84.422 62.644l-0.618 0.076zM718.72 96h65.28v-32h-65.28c0.814 4.81 1.28 10.351 1.28 16s-0.466 11.19-1.36 16.586l0.080-0.586zM816 352h36.688l87.872-248.992-64.992-39.008h-59.568v136.224c1.152-0.080 2.272-0.336 3.44-0.336 6.219 0.016 12.134 1.297 17.508 3.599l-0.292-0.111c16.165 6.612 27.347 22.218 27.347 40.436 0 0.167-0.001 0.335-0.003 0.502v-0.025c0 0.027 0 0.059 0 0.091 0 12.201-4.96 23.243-12.974 31.22l-35.026 35.026zM828.384 252.976c2.233-2.206 3.616-5.268 3.616-8.653 0-0.012 0-0.025 0-0.037v0.002c0.001-0.055 0.001-0.12 0.001-0.186 0-5.038-3.105-9.351-7.505-11.13l-0.081-0.029c-1.4-0.611-3.031-0.967-4.746-0.967-3.384 0-6.445 1.386-8.645 3.622l-171.026 171.026v34.752zM576 512h32v-176h-32zM560 304h64c8.837 0 16 7.163 16 16v0 41.376l32-32v-85.456c-18.971 7.626-40.965 12.059-63.991 12.080h-96.009v128h32v-64c0-8.837 7.163-16 16-16v0zM427.52 416h-75.52v96h51.52zM128 496h32v-96h-32zM96 294.624v73.376h112c0.001 0 0.002 0 0.003 0 7.158 0 13.218 4.7 15.262 11.183l0.031 0.113 60.512 196.704h148.192v-32h-96c-8.837 0-16-7.163-16-16v0-208c0.001-4.418 1.792-8.417 4.688-11.312l52.688-52.688h-153.376c-26.591-0.020-51.792-5.945-74.372-16.533l1.076 0.453zM224 0c-44.183 0-80 35.817-80 80s35.817 80 80 80v0h384c44.183 0 80-35.817 80-80s-35.817-80-80-80v0zM384 352h32v-32h-32v32z" />
<glyph unicode="&#xe906;" glyph-name="chainsaw" d="M799.056 454.752l33.952 33.952c8.687 8.687 14.060 20.688 14.060 33.944 0 26.512-21.492 48.004-48.004 48.004-13.256 0-25.257-5.373-33.944-14.060l-33.92-33.952-79.184 79.2c-2.373 2.374-5.489 4.006-8.969 4.518l-0.087 0.010-67.312 9.6 19.792 19.792-22.64 22.64-22.624-22.624-22.656 22.64 22.64 22.624-22.624 22.624-22.64-22.624-22.624 22.624 22.624 22.64-22.624 22.624-22.624-22.64-22.624 22.64 22.624 22.624-22.624 22.624-22.624-22.624-22.624 22.624 22.624 22.64-22.64 22.624-23.2-23.216c-10.739 8.968-22.906 16.83-35.976 23.114l-1.048 0.454 11.392 30.896-30.032 11.056-11.392-30.896c-8.455 2.398-18.488 4.284-28.779 5.287l-0.725 0.057v32.848h-32v-32.848c-15.801-1.516-30.328-4.882-44.052-9.911l1.22 0.391-13.808 29.92-29.040-13.408 13.792-29.888c-9.359-5.389-17.425-11.033-24.954-17.3l0.282 0.228-23.2 23.216-22.64-22.624 23.216-23.216c-8.961-10.734-16.818-22.896-23.098-35.96l-0.454-1.048-30.912 11.408-11.056-30.032 30.912-11.392c-2.402-8.453-4.293-18.485-5.302-28.776l-0.058-0.728h-32.848v-32h32.848c1.516-15.801 4.882-30.328 9.911-44.052l-0.391 1.22-29.936-13.808 13.408-29.056 29.904 13.792c5.387-9.366 11.032-17.437 17.3-24.97l-0.228 0.282-23.216-23.2 22.624-22.624 22.64 22.624 22.624-22.64-22.624-22.624 22.624-22.624 22.64 22.624 22.624-22.624-22.64-22.624 22.624-22.624 22.64 22.624 22.624-22.624-22.624-22.624 22.624-22.624 22.624 22.624 22.624-22.64-22.624-22.624 22.624-22.624 19.808 19.808 9.6-67.328c0.522-3.567 2.154-6.683 4.528-9.056l248.912-248.896c20.281-20.243 48.278-32.762 79.2-32.762s58.919 12.518 79.202 32.763l181.006 181.006c14.451 14.492 23.386 34.491 23.386 56.576s-8.935 42.084-23.388 56.578l0.002-0.002zM787.728 533.952c2.896 2.898 6.899 4.691 11.32 4.691 8.838 0 16.003-7.165 16.003-16.003 0-4.417-1.79-8.416-4.683-11.312l-226.272-226.272c-2.914-3.014-6.993-4.885-11.509-4.885-8.837 0-16 7.163-16 16 0 4.516 1.871 8.595 4.88 11.504l0.004 0.004zM629.328 239.792c-14.479-14.489-34.487-23.451-56.588-23.451-44.183 0-80 35.817-80 80s35.817 80 80 80c3.995 0 7.921-0.293 11.759-0.858l-0.435 0.053-45.232-45.216c-8.694-8.69-14.071-20.697-14.071-33.96 0-26.518 21.497-48.015 48.015-48.015 13.255 0 25.256 5.371 33.944 14.056l45.232 45.232c0.504-3.376 0.792-7.273 0.792-11.237 0-22.096-8.94-42.105-23.401-56.605l0.002 0.002zM357.808 330.32l-5.664 39.584 214.976 214.96 39.6-5.648zM380.448 443.456l-181.024 181.008c-14.476 14.478-23.429 34.477-23.429 56.568 0 44.185 35.819 80.005 80.005 80.005 22.095 0 42.098-8.956 56.576-23.437l181.024-181.008zM154.176 782.864c26.077 26.021 62.071 42.111 101.824 42.111s75.747-16.090 101.827-42.114l181.021-181.021-22.624-22.64-181.024 181.040c-20.269 20.269-48.27 32.806-79.2 32.806-61.859 0-112.006-50.147-112.006-112.006 0-30.93 12.537-58.931 32.806-79.2l181.024-181.040-22.624-22.608-181.024 181.008c-26.025 26.077-42.119 62.075-42.119 101.832s16.094 75.755 42.121 101.834l-0.002-0.002zM900.88 239.792l-181.024-181.008c-14.488-14.454-34.484-23.391-56.568-23.391s-42.080 8.937-56.57 23.393l-237.582 237.598 271.536 271.52 67.872-67.888-98.368-98.416c-11.2 4.124-24.135 6.51-37.627 6.51-61.856 0-112-50.144-112-112s50.144-112 112-112c61.856 0 112 50.144 112 112 0 13.483-2.382 26.409-6.749 38.381l0.248-0.778 98.384 98.368 124.448-124.448c8.674-8.684 14.038-20.676 14.038-33.92s-5.364-25.236-14.038-33.921l0.001 0.001zM742.496 262.4l-113.152-113.136c-8.519-8.657-13.78-20.544-13.78-33.66 0-26.51 21.49-48 48-48 13.119 0 25.009 5.263 33.674 13.794l113.13 113.114c8.854 8.713 14.34 20.826 14.34 34.22 0 26.51-21.49 48-48 48-13.39 0-25.5-5.483-34.206-14.326l-0.006-0.006zM787.744 217.136l-113.136-113.136c-2.895-2.894-6.895-4.685-11.312-4.685s-8.417 1.79-11.312 4.685v0c-2.894 2.895-4.685 6.895-4.685 11.312s1.79 8.417 4.685 11.312l113.136 113.136c2.896 2.894 6.895 4.683 11.312 4.683 8.838 0 16.003-7.165 16.003-16.003 0-4.421-1.793-8.424-4.691-11.32v0zM844.323 273.75l22.627 22.627 22.627-22.627-22.627-22.627-22.627 22.627zM810.378 307.686l22.627 22.627 22.627-22.627-22.627-22.627-22.627 22.627zM776.438 341.61l22.627 22.627 22.627-22.627-22.627-22.627-22.627 22.627zM414.405 884.683l22.627 22.628 181.022-181.016-22.627-22.628-181.022 181.016zM335.201 194.539l22.627 22.628 181.022-181.016-22.627-22.628-181.022 181.016zM538.842-9.092l22.627 22.627 22.627-22.627-22.627-22.627-22.627 22.627z" />
<glyph unicode="&#xe907;" glyph-name="clock" d="M726.976 233.28l-266.176 163.52v307.2h76.8v-266.24l230.4-138.24zM512 960c-282.77 0-512-229.23-512-512s229.23-512 512-512c282.77 0 512 229.23 512 512v0c-0.87 282.419-229.581 511.13-511.917 512h-0.083z" />
<glyph unicode="&#xe908;" glyph-name="concrete-mixer" d="M32 0h32v-32h-32v32zM928 96c-0.077 53.347-32.741 99.046-79.15 118.264l-0.85 0.312v30.4l117.632 44.096c6.095 2.339 10.347 8.134 10.368 14.925v176.003c-0.001 4.418-1.792 8.417-4.688 11.312l-48 48c-2.895 2.896-6.894 4.687-11.312 4.688h-96v32h-32v-32h-16c-8.837 0-16-7.163-16-16v0-80h-32v16c0 8.837-7.163 16-16 16v0h-25.296l-22.816 193.872c-0.969 7.993-7.712 14.127-15.888 14.128h-288c-8.176-0.001-14.919-6.135-15.88-14.051l-0.008-0.077-22.816-193.872h-25.296c-8.837 0-16-7.163-16-16v0-16h-32v96c0 8.837-7.163 16-16 16v0h-16v32h-32v-32h-16c-8.837 0-16-7.163-16-16v0-96h-48v96h-32v-224h32v96h48v-272h-32c-8.837 0-16-7.163-16-16v0-16h-32v-32h32v-16c0-8.837 7.163-16 16-16v0h64v-48h-80v-32h896v32h-107.616c26.776 23.498 43.594 57.783 43.616 95.996v0.004zM896 96c0-53.019-42.981-96-96-96s-96 42.981-96 96c0 53.019 42.981 96 96 96v0c52.997-0.055 95.945-43.003 96-95.995v-0.005zM944 315.088l-96-36v104.912h32v-32h32v32h32zM944 473.376v-57.376h-96v96h57.376zM784 512h32v-288h-32zM625.76 656l3.776-32h-267.072l3.776 32zM358.704 592h274.592l13.184-112h-300.88zM304 448h384v-32h-384zM651.808 384c-0.336-1.888-0.592-3.792-1.008-5.648-13.645-61.247-67.521-106.354-131.932-106.354-0.226 0-0.453 0.001-0.679 0.002h-44.413c-0.192-0.001-0.42-0.002-0.647-0.002-64.405 0-118.277 45.098-131.76 105.438l-0.169 0.9c-0.416 1.872-0.672 3.776-1.008 5.664zM272 416v-16c0-8.837 7.163-16 16-16v0h19.712c0.608-4.224 1.328-8.432 2.24-12.592 16.861-75.677 83.429-131.41 163.015-131.41 0.284 0 0.569 0.001 0.853 0.002h44.404c0.239-0.001 0.522-0.002 0.805-0.002 79.592 0 146.164 55.741 162.81 130.315l0.208 1.111c0.912 4.16 1.6 8.368 2.24 12.576h19.712c8.837 0 16 7.163 16 16v0 16h32v-201.424c-32.172-13.344-57.232-38.404-70.262-69.725l-0.314-0.851h-441.424v272zM176 528h32v-384h-32zM128 112h545.104c-0.703-4.807-1.104-10.357-1.104-16s0.401-11.193 1.177-16.622l-0.073 0.622h-545.104zM208 0v48h473.424c7.882-19.014 19.504-35.067 34.051-47.878l0.141-0.122zM736 96c0-35.346 28.654-64 64-64s64 28.654 64 64c0 35.346-28.654 64-64 64v0c-35.346 0-64-28.654-64-64v0zM832 96c0-17.673-14.327-32-32-32s-32 14.327-32 32c0 17.673 14.327 32 32 32v0c17.673 0 32-14.327 32-32v0zM880 480h32v-32h-32v32zM688.224 637.36l31.552 5.28-16 96c-1.311 7.627-7.874 13.358-15.776 13.36h-192v-32h178.448zM432 752h32v-32h-32v32z" />
<glyph unicode="&#xe909;" glyph-name="concrete-mixer-1" d="M752 160c-35.346 0-64-28.654-64-64s28.654-64 64-64c35.346 0 64 28.654 64 64v0c0 35.346-28.654 64-64 64v0zM752 64c-17.673 0-32 14.327-32 32s14.327 32 32 32c17.673 0 32-14.327 32-32v0c0-17.673-14.327-32-32-32v0zM272 160c-35.346 0-64-28.654-64-64s28.654-64 64-64c35.346 0 64 28.654 64 64v0c0 35.346-28.654 64-64 64v0zM272 64c-17.673 0-32 14.327-32 32s14.327 32 32 32c17.673 0 32-14.327 32-32v0c0-17.673-14.327-32-32-32v0zM976 400h-19.776l-39.28 144h11.056c8.837 0 16 7.163 16 16v0 64c0 8.837-7.163 16-16 16v0h-192c-8.837 0-16-7.163-16-16v0-32h-48c-8.837 0-16-7.163-16-16v0-144c0.001-4.418 1.792-8.417 4.688-11.312l59.312-59.312v-18.752l-16-16-88.672 88.672c15.514 26.781 24.67 58.921 24.67 93.199 0 40.171-12.573 77.405-34 107.982l0.402-0.605-19.856 28.672c-0.859 1.214-1.829 2.265-2.918 3.179l-0.026 0.021-262 216.8c-2.748 2.289-6.315 3.678-10.206 3.678-4.418 0-8.418-1.791-11.314-4.686l-203.616-203.664c-2.882-2.893-4.664-6.884-4.664-11.292 0-3.88 1.381-7.437 3.678-10.207l-0.021 0.026 25.12-30.4h-56.576c-8.837 0-16-7.163-16-16v0-192c0-0.026 0-0.057 0-0.087 0-6.23 3.56-11.628 8.757-14.271l0.091-0.042 55.152-27.488v-70.112h-32c-8.837 0-16-7.163-16-16v0-128h-32v-32h32v-16c0-8.837 7.163-16 16-16v0h65.104c4.181-32.083 19.716-59.928 42.371-79.878l0.141-0.122h-91.616v-32h896v32h-155.616c22.796 20.072 38.331 47.917 42.443 79.355l0.069 0.645h33.104c4.418 0.001 8.417 1.792 11.312 4.688l64 64c2.896 2.895 4.687 6.894 4.688 11.312v0 224c0 8.837-7.163 16-16 16v0zM960 230.832l-144 52.368v84.8h144zM923.056 400h-107.056v144h67.776zM688 438.624v121.376h32v-153.376zM681.376 304l-16-16h-18.752l-75.2 75.2c4.576 3.792 9.056 7.776 13.328 12.048s8.272 8.736 12.064 13.312zM288 405.632v-21.632h-80v118.4zM208 352h96c8.837 0 16 7.163 16 16v0 2.24l24.128-16.64c29.895-21.005 67.047-33.568 107.134-33.568 34.336 0 66.52 9.218 94.211 25.313l-0.897-0.481 56.8-56.864h-393.376zM580.16 597.664c17.431-24.886 27.854-55.793 27.854-89.134 0-86.457-70.087-156.544-156.544-156.544-33.341 0-64.247 10.423-89.639 28.188l0.505-0.335-26.848 18.56-164.096 198.4 191.808 191.808 198.4-164.096zM312.448 830.608l26.016-21.52-187.552-187.552-21.52 26.016zM80 409.888v166.112h67.040l26.48-32h-45.52c-8.837 0-16-7.163-16-16v0-134.112zM176 512v-240c0-8.837-7.163-16-16-16s-16 7.163-16 16v0 240zM176 96c0 53.019 42.981 96 96 96s96-42.981 96-96c0-53.019-42.981-96-96-96v0c-52.997 0.055-95.945 43.003-96 95.995v0.005zM356.384 0c22.796 20.072 38.331 47.917 42.443 79.355l0.069 0.645h226.208c4.181-32.083 19.716-59.928 42.371-79.878l0.141-0.122zM752 0c-53.019 0-96 42.981-96 96s42.981 96 96 96c53.019 0 96-42.981 96-96v0c-0.055-52.997-43.003-95.945-95.995-96h-0.005zM905.376 112h-26.48c-8.178 63.458-61.87 111.99-126.896 111.99s-118.718-48.532-126.829-111.35l-0.067-0.64h-226.208c-8.178 63.458-61.87 111.99-126.896 111.99s-118.718-48.532-126.829-111.35l-0.067-0.64h-49.104v144h18.944c6.689-18.799 24.329-32.015 45.056-32.015s38.367 13.217 44.952 31.682l0.104 0.333h466.944c4.418 0.001 8.417 1.792 11.312 4.688l64 64c2.896 2.895 4.687 6.894 4.688 11.312v0 272h160v-32h-112c-8.837 0-16-7.163-16-16v0-288c0.005-6.869 4.337-12.724 10.417-14.988l0.111-0.036 165.472-60.176v-30.176zM848 336h32v-32h-32v32zM32 0h32v-32h-32v32zM421.793 817.476l20.398 24.656 182.036-150.598-20.398-24.656-182.036 150.598zM373.796 857.211l20.403 24.652 26.020-21.535-20.403-24.652-26.020 21.535z" />
<glyph unicode="&#xe90a;" glyph-name="cone" d="M32 0h32v-32h-32v32zM880 48c0 26.51-21.49 48-48 48v0h-19.728l-204.176 758.4c-11.792 42.758-50.338 73.64-96.096 73.64s-84.304-30.882-95.931-72.941l-0.165-0.699-204.176-758.4h-19.728c-26.51 0-48-21.49-48-48v0-48h-48v-32h896v32h-112zM649.888 576h-275.776l34.464 128h206.848zM658.512 544l34.448-128h-361.92l34.448 128zM701.584 384l34.416-128h-448l34.464 128zM446.816 846.048c7.996 29.007 34.143 49.959 65.184 49.959s57.188-20.952 65.072-49.484l0.112-0.474 29.632-110.048h-189.632zM279.344 224h465.312l34.544-128h-534.32zM176 0v48c0 8.837 7.163 16 16 16v0h640c8.837 0 16-7.163 16-16v0-48zM736.586 491.852l30.902 8.311 86.072-320.019-30.902-8.311-86.072 320.019zM235.246 420.093l8.615 32.009 30.912-8.32-8.615-32.009-30.912 8.32zM252.413 484.108l90.472 336.137 30.912-8.32-90.472-336.137-30.912 8.32z" />
<glyph unicode="&#xe90b;" glyph-name="crane" d="M32 0h32v-32h-32v32zM528 48c0 8.837-7.163 16-16 16v0h-112v448h16c8.837 0 16 7.163 16 16v0 32h320v-240h-16c-8.837 0-16-7.163-16-16v0-64c0-7.456 5.1-13.72 12.001-15.496l0.111-0.024 51.888-12.976v-35.504c0-8.837 7.163-16 16-16v0c8.837 0 16-7.163 16-16s-7.163-16-16-16c-8.837 0-16 7.163-16 16v0h-32c0.005-26.506 21.494-47.991 48-47.991 26.51 0 48 21.49 48 48 0 20.774-13.197 38.466-31.666 45.149l-0.334 0.106v22.24l51.888 12.976c7.012 1.8 12.112 8.064 12.112 15.52v0 64c0 8.837-7.163 16-16 16v0h-16v240h112c8.837 0 16 7.163 16 16v0 48c-0.001 4.418-1.792 8.417-4.688 11.312l-48 48c-1.436 1.437-3.147 2.599-5.048 3.401l-0.104 0.039-576 240c-0.16 0-0.336 0-0.496 0.128-0.528 0.192-1.088 0.272-1.6 0.416-0.934 0.275-2.024 0.474-3.147 0.557l-0.053 0.003c-0.336 0.016-0.592 0.144-0.864 0.144s-0.704-0.16-1.072-0.176c-1.133-0.087-2.18-0.275-3.188-0.556l0.116 0.028c-0.715-0.17-1.318-0.362-1.902-0.593l0.094 0.033c-1.049-0.446-1.949-0.944-2.789-1.522l0.053 0.034c-0.496-0.336-1.008-0.592-1.456-0.96-0.144-0.112-0.304-0.176-0.448-0.288l-271.888-240.128c-3.363-2.884-5.489-7.127-5.52-11.867v-192.005c0-8.837 7.163-16 16-16v0h64c8.837 0 16 7.163 16 16v0 80h32v-48h32v48h32v-32c0-8.837 7.163-16 16-16v0h16v-448h-112c-8.837 0-16-7.163-16-16v0-48h-48v-32h896v32h-464zM304 374.624v114.752l57.376-57.376zM368 393.376v-114.752l-57.376 57.376zM361.376 240l-57.376-57.376v114.752zM368 201.376v-114.752l-57.376 57.376zM368 470.624l-41.376 41.376h41.376zM400 544h-128v160h48v-80c0-0.004 0-0.008 0-0.012 0-6.692 4.109-12.425 9.941-14.813l0.107-0.039 69.952-27.968v-37.168zM128 592h-25.376l57.376 57.376 57.376-57.376zM80 614.624v41.376h41.376zM198.624 656h41.376v-41.376zM240 720v-32h-133.68l201.68 177.952-32.496-129.952h-19.504c-8.837 0-16-7.163-16-16v0zM308.496 736l27.504 110.032 27.504-110.032zM352 704h48v-88.368l-48 19.2zM432 656h41.376l-41.376-41.376zM512 649.376l57.376-57.376h-114.752zM550.624 656h114.752l-57.376-57.376zM704 649.376l57.376-57.376h-114.752zM742.624 656h114.752l-57.376-57.376zM432 688v32c0 8.837-7.163 16-16 16v0h-19.504l-37.248 148.976 472.752-196.976zM848 252.496l-48-12-48 12v35.504h96zM816 320h-32v240h32zM944 617.376v-25.376h-105.376l64 64h2.752zM112 496h-32v64h32zM304 105.376l41.376-41.376h-41.376zM176 0v32h320v-32zM489.842 894.569l12.314 29.536 32.002-13.343-12.314-29.536-32.002 13.343zM553.868 867.929l12.314 29.536 351.961-146.745-12.314-29.536-351.961 146.745z" />
<glyph unicode="&#xe90c;" glyph-name="cutter" d="M93.008 816.768c-0.469-1.437-0.74-3.092-0.74-4.809 0-4.421 1.793-8.423 4.692-11.319v0l150.4-150.4-10.192-4.8c-5.454-2.627-9.15-8.112-9.15-14.46 0-3.721 1.27-7.145 3.401-9.863l-0.026 0.035 315.12-405.152 16.688-49.872c23.689-69.818 88.639-119.17 165.118-119.184h0.002c4.48 0 9.008 0.16 13.536 0.512l16.864 1.296c90.334 7.154 160.928 82.22 160.928 173.775 0 48.133-19.511 91.708-51.056 123.249l-398.192 398.224c-2.899 2.92-6.916 4.727-11.354 4.727-2.478 0-4.824-0.563-6.918-1.569l0.096 0.042-20.528-9.728-119.696 119.728c-2.88 2.903-6.87 4.699-11.28 4.699-0.995 0-1.969-0.092-2.914-0.267l0.098 0.015-192.416-33.936c-5.928-1.073-10.658-5.291-12.448-10.831l-0.032-0.113zM756.272 80.672l-16.88-1.312c-3.259-0.266-7.054-0.417-10.885-0.417-53.141 0-99.472 29.158-123.866 72.348l-0.368 0.709c8.44 5.472 18.76 8.725 29.84 8.725 13.129 0 25.191-4.567 34.684-12.2l-0.108 0.084c18.025-14.553 41.215-23.362 66.463-23.362 29.377 0 55.969 11.926 75.199 31.2l17.602 17.602c10.033 10.050 23.903 16.267 39.224 16.267 3.859 0 7.626-0.394 11.262-1.145l-0.358 0.062 5.504-1.104c-14.78-59.098-65.353-102.942-126.851-107.429l-0.461-0.027zM887.472 230.016c0.176-3.424 0.096-6.768 0-10.144l-3.2 0.64c-5.163 1.085-11.097 1.706-17.175 1.706-24.175 0-46.054-9.826-61.862-25.703l-17.603-17.603c-13.455-13.468-32.050-21.8-52.591-21.8-17.648 0-33.859 6.15-46.608 16.423l0.143-0.111c-14.753 11.85-33.705 19.018-54.333 19.018-15.642 0-30.321-4.122-43.010-11.339l0.43 0.225-15.664 47.376c-0.616 1.837-1.481 3.429-2.572 4.837l0.028-0.037-257.152 330.576 195.92 92.8 333.744-333.68c24.054-24.026 39.538-56.628 41.473-92.828l0.015-0.356zM455.664 713.472l32.528-32.544-192-90.96-27.2 35.040zM400.912 722.944l-61.408-29.088-121.264 121.264 76.944 13.568zM179.792 808.32l129.008-129.008-31.12-14.736 0.304 0.288-136.656 136.736zM526.88 574.4c-8.741 9.041-20.978 14.654-34.526 14.654-26.51 0-48-21.49-48-48 0-13.548 5.613-25.785 14.64-34.513l106.125-106.125c0.974-16.063 7.794-30.368 18.338-40.962l67.87-67.886c10.592-10.539 24.898-17.354 40.784-18.312l0.176-0.008 38.24-38.24c8.779-9.345 21.217-15.166 35.014-15.166 26.51 0 48 21.49 48 48 0 13.785-5.811 26.213-15.117 34.967l-0.025 0.023-38.256 38.256c-0.983 16.051-7.787 30.345-18.308 40.948l-67.868 67.884c-10.596 10.518-24.893 17.319-40.767 18.279l-0.177 0.009zM476.944 540.464c0.002 8.835 7.165 15.997 16 15.997 4.417 0 8.417-1.79 11.312-4.685l92.112-92.112c-9.582-5.342-17.282-13.042-22.475-22.333l-0.149-0.291-92.144 92.080c-2.876 2.866-4.656 6.83-4.656 11.211 0 0.030 0 0.060 0 0.090v-0.005zM780.464 268.944c0-0.013 0-0.028 0-0.043 0-4.405-1.792-8.39-4.687-11.268l-0.001-0.001c-2.934-2.809-6.921-4.538-11.312-4.538s-8.378 1.729-11.318 4.544l-24.218 24.218c4.907 2.826 9.143 6.044 12.926 9.726l-0.014-0.014c3.676 3.765 6.894 8.003 9.549 12.606l0.163 0.306 24.224-24.24c2.896-2.869 4.688-6.846 4.688-11.243 0-0.036 0-0.071 0-0.107v0.005zM719.216 359.456c5.794-5.791 9.377-13.793 9.377-22.632s-3.584-16.841-9.377-22.632v0c-5.869-5.614-13.843-9.070-22.624-9.070s-16.755 3.456-22.636 9.081l-67.876 67.828c-5.793 5.791-9.377 13.793-9.377 22.632 0 17.674 14.327 32.001 32.001 32.001 8.835 0 16.833-3.58 22.624-9.369v0zM606.071 653.56l22.627 22.627 226.274-226.274-22.627-22.627-226.274 226.274zM854.977 404.65l22.623 22.631 22.631-22.623-22.623-22.631-22.631 22.623zM205.97 550.416l25.264 19.639 138.547-178.228-25.264-19.639-138.547 178.228z" />
<glyph unicode="&#xe90d;" glyph-name="demolition" d="M32 0h32v-32h-32v32zM816 400c-8.837 0-16-7.163-16-16v0-56.4c-56.408-20.365-96-73.441-96-135.765 0-79.529 64.471-144 144-144s144 64.471 144 144c0 62.323-39.592 115.399-94.997 135.448l-1.003 0.317v56.4c0 8.837-7.163 16-16 16v0h-16v281.376l43.312 43.312c2.894 2.895 4.685 6.895 4.685 11.312s-1.79 8.417-4.685 11.312l-112 112c-2.895 2.894-6.895 4.685-11.312 4.685s-8.417-1.79-11.312-4.685l-46.88-46.88-378.608-252.432h-123.2c-8.837 0-16-7.163-16-16v0-144h-16c-8.837 0-16-7.163-16-16v0-134.832c-38.098-10.881-69.968-33.276-92.48-63.125l-0.32-0.443 25.6-19.2c5.633 7.356 11.641 13.861 18.193 19.775l0.127 0.113 22.64-22.672c-23.207-20.537-37.763-50.395-37.763-83.653 0-31.348 12.933-59.676 33.754-79.939l0.025-0.024h-49.776v-32h896v32h-433.776c20.846 20.287 33.779 48.615 33.779 79.963 0 33.258-14.556 63.116-37.645 83.551l-0.118 0.102 22.656 22.656c6.664-6.029 12.666-12.528 18.049-19.527l0.255-0.345 25.6 19.2c-22.834 30.29-54.703 52.683-91.567 63.265l-1.233 0.303v70.832c0 0.014 0 0.031 0 0.047 0 8.403-6.478 15.293-14.712 15.949l-0.056 0.004-49.232 3.744v53.408l335.744 320.448 32.256-32.224v-281.376zM784 825.376l89.376-89.376-25.376-25.376-89.376 89.376zM240 528h48v-128h-48zM560 80c-0.055-44.161-35.839-79.945-79.995-80h-256.005c-44.183 0-80 35.817-80 80s35.817 80 80 80v0h256c44.161-0.055 79.945-35.839 80-79.995v-0.005zM526.928 181.552c-13.751 6.581-29.888 10.431-46.922 10.448h-256.006c-17.040-0.017-33.177-3.868-47.6-10.736l0.672 0.288-23.776 23.776c20.323 11.743 44.704 18.672 70.704 18.672 0 0 0 0 0 0h256c0.003 0 0.007 0 0.010 0 25.998 0 50.376-6.935 71.385-19.056l-0.691 0.368zM496 255.088c-5.296 0.464-10.608 0.912-16 0.912h-256c-5.392 0-10.704-0.448-16-0.912v112.912h80v-32c0-0.014 0-0.031 0-0.047 0-8.403 6.478-15.293 14.712-15.949l0.056-0.004 193.232-14.816zM320 350.816v177.184h32c44.161-0.055 79.945-35.839 80-79.995v-105.797zM393.008 552.112l148.96 99.296 71.424-71.424-149.392-142.592v10.608c-0.081 47.040-29.12 87.278-70.239 103.844l-0.753 0.268zM636.544 602.096l-67.424 67.424 164.8 109.888 43.2-43.2zM960 192c0-61.856-50.144-112-112-112s-112 50.144-112 112c0 61.856 50.144 112 112 112v0c61.823-0.082 111.918-50.177 112-111.992v-0.008zM848 336c-5.656-0.017-11.214-0.359-16.677-1.010l0.677 0.066v32.944h32v-32.944c-4.786 0.585-10.343 0.927-15.978 0.944h-0.022zM480 128c-26.51 0-48-21.49-48-48s21.49-48 48-48c26.51 0 48 21.49 48 48v0c0 26.51-21.49 48-48 48v0zM480 64c-8.837 0-16 7.163-16 16s7.163 16 16 16c8.837 0 16-7.163 16-16v0c0-8.837-7.163-16-16-16v0zM352 128c-26.51 0-48-21.49-48-48s21.49-48 48-48c26.51 0 48 21.49 48 48v0c0 26.51-21.49 48-48 48v0zM352 64c-8.837 0-16 7.163-16 16s7.163 16 16 16c8.837 0 16-7.163 16-16v0c0-8.837-7.163-16-16-16v0zM224 128c-26.51 0-48-21.49-48-48s21.49-48 48-48c26.51 0 48 21.49 48 48v0c0 26.51-21.49 48-48 48v0zM224 64c-8.837 0-16 7.163-16 16s7.163 16 16 16c8.837 0 16-7.163 16-16v0c0-8.837-7.163-16-16-16v0zM423.121 685.303l240.003 160.002 17.75-26.626-240.003-160.002-17.75 26.626zM359.122 642.636l31.999 21.343 17.756-26.622-31.999-21.343-17.756 26.622z" />
<glyph unicode="&#xe90e;" glyph-name="design" d="M496 272h32v-32h-32v32zM64 816c0.055 44.161 35.839 79.945 79.995 80h48.005v32h-48c-61.827-0.073-111.927-50.174-112-111.993v-192.007h32zM32 592h32v-32h-32v32zM960 624h32v-336h-32v336zM96 800v-560c0-35.346 28.654-64 64-64v0h228.8l-62.224-112h-86.576c-26.51 0-48-21.49-48-48v0c0.058-5.759 1.132-11.251 3.052-16.327l-0.108 0.327h-82.944v-32h800v32h-82.944c1.812 4.749 2.886 10.241 2.944 15.975v0.025c0 26.51-21.49 48-48 48v0h-86.592l-62.208 112h228.8c35.346 0 64 28.654 64 64v0 560c0 35.346-28.654 64-64 64v0h-704c-35.346 0-64-28.654-64-64v0zM896 336h-768v368h768zM800 16c0-8.837-7.163-16-16-16v0h-544c-8.837 0-16 7.163-16 16s7.163 16 16 16v0h544c8.837 0 16-7.163 16-16v0zM660.8 64h-297.6l62.224 112h173.168zM896 240c0-17.673-14.327-32-32-32v0h-704c-17.673 0-32 14.327-32 32v0 64h768zM896 800v-64h-768v64c0 17.673 14.327 32 32 32v0h704c17.673 0 32-14.327 32-32v0zM160 800h32v-32h-32v32zM224 800h32v-32h-32v32zM288 800h32v-32h-32v32zM48 0h32v-32h-32v32zM784 384h64c8.837 0 16 7.163 16 16v0 256c0 8.837-7.163 16-16 16v0h-64c-8.837 0-16-7.163-16-16v0-256c0-8.837 7.163-16 16-16v0zM800 640h32v-224h-32zM192 384h144c8.837 0 16 7.163 16 16v0 48h-32v-32h-112v96h32v32h-32v80h256v-80h-80v-32h96c8.837 0 16 7.163 16 16v0 112c0 8.837-7.163 16-16 16v0h-288c-8.837 0-16-7.163-16-16v0-240c0-8.837 7.163-16 16-16v0zM320 544h-48v-32h48v-32h32v112h-32v-48zM576 656h32v-32h-32v32zM640 656h80v-32h-80v32zM544 592h176v-32h-176v32zM544 528h176v-32h-176v32zM544 464h128v-32h-128v32z" />
<glyph unicode="&#xe90f;" glyph-name="disc-grinder" d="M848 80c0-8.837-7.163-16-16-16s-16 7.163-16 16v0 256c0 26.51-21.49 48-48 48s-48-21.49-48-48v0-320c0-8.837-7.163-16-16-16v0h-160c-8.837 0-16 7.163-16 16v0 18.272c27.746 7.339 47.886 32.166 48 61.715v167.309c0.001 10.69 5.243 20.156 13.298 25.967l0.094 0.065 71.824 51.296c16.282 11.771 26.76 30.7 26.784 52.076v83.956c32.934 25.654 59.771 57.484 79.093 93.911l0.763 1.577c1.122 2.13 1.78 4.655 1.78 7.334 0 7.136-4.671 13.18-11.122 15.243l-0.113 0.031-43.872 13.712c13.552 28.018 21.472 60.934 21.472 95.7 0 123.712-100.288 224-224 224s-224-100.288-224-224c0-34.766 7.92-67.681 22.054-97.042l-0.582 1.342-43.872-13.712c-6.565-2.094-11.236-8.139-11.236-15.274 0-2.679 0.658-5.203 1.822-7.422l-0.042 0.088c19.295-36.449 44.727-67.101 75.236-91.71l0.556-0.434h-139.936c-26.51 0-48-21.49-48-48s21.49-48 48-48v0h144.656c2.517-17.963 12.173-33.283 25.957-43.247l0.187-0.129 71.792-51.2c8.158-5.875 13.408-15.347 13.408-26.045 0-0.029 0-0.058 0-0.088v0.005-167.296c0.114-29.562 20.254-54.389 47.553-61.627l0.447-0.101v-18.272c0-26.51 21.49-48 48-48v0h160c26.51 0 48 21.49 48 48v0 320c0 8.837 7.163 16 16 16s16-7.163 16-16v0-256c0-26.51 21.49-48 48-48s48 21.49 48 48v0 112h-32zM677.712 509.344c-8.786 11.352-22.397 18.604-37.704 18.656h-19.064l-10.784 50.272c8.696 6.686 16.37 13.893 23.282 21.784l0.158 0.184 96.384-30.128c-14.652-23.391-31.976-43.417-51.917-60.471l-0.355-0.297zM438.304 692.416l-2.624-12.208c-2.509 7.427-3.958 15.981-3.958 24.873 0 44.262 35.882 80.144 80.144 80.144s80.144-35.882 80.144-80.144c0-8.715-1.391-17.105-3.963-24.96l0.161 0.567-2.512 11.728c-7.522 34.309-37.654 59.611-73.696 59.611s-66.174-25.302-73.604-59.112l-0.092-0.499zM320 704c0 0.056 0 0.122 0 0.189 0 106.039 85.961 192 192 192s192-85.961 192-192c0-31.376-7.526-60.994-20.872-87.148l0.504 1.087-50.976 16c-1.415 0.454-3.043 0.716-4.732 0.716-5.257 0-9.921-2.535-12.838-6.449l-0.030-0.042c-3.985-5.241-8.085-9.888-12.494-14.222l-0.018-0.018-4.144 18.848c15.932 19.205 25.6 44.107 25.6 71.267 0 61.856-50.144 112-112 112s-112-50.144-112-112c0-27.16 9.668-52.062 25.749-71.453l-0.149 0.185-4.064-18.992c-4.427 4.352-8.527 8.999-12.281 13.924l-0.231 0.316c-2.947 3.957-7.612 6.492-12.868 6.492-1.689 0-3.317-0.262-4.845-0.747l0.113 0.031-50.976-16c-12.877 25.044-20.431 54.646-20.448 86.011v0.005zM294.016 570.112l96.384 30.128c7.070-8.075 14.744-15.282 23.064-21.69l0.376-0.278-10.784-50.272h-19.056c-15.315-0.052-28.926-7.304-37.63-18.546l-0.082-0.11c-20.296 17.351-37.62 37.377-51.639 59.689l-0.633 1.079zM176 432c0 8.837 7.163 16 16 16v0h144v-32h-144c-8.837 0-16 7.163-16 16v0zM453.2 315.376l-71.792 51.2c-8.158 5.875-13.408 15.347-13.408 26.045 0 0.029 0 0.058 0 0.088v-0.005 87.296c0 8.837 7.163 16 16 16v0h32c0 0 0.001 0 0.001 0 7.652 0 14.050 5.372 15.627 12.55l0.020 0.106 37.936 177.040c4.362 19.706 21.685 34.226 42.4 34.226s38.038-14.52 42.346-33.938l0.054-0.288 37.936-177.056c1.603-7.276 7.997-12.64 15.643-12.64 0.013 0 0.026 0 0.039 0h31.998c8.837 0 16-7.163 16-16v0-87.296c-0.001-10.69-5.243-20.156-13.298-25.967l-0.094-0.065-71.824-51.296c-16.282-11.771-26.76-30.7-26.784-52.076v-135.3h-64v135.296c-0.025 21.384-10.51 40.313-26.612 51.951l-0.188 0.129zM480 96h64c0-17.673-14.327-32-32-32s-32 14.327-32 32v0zM573.728 416h34.272v32h-34.272c-7.249 27.799-32.131 47.985-61.728 47.985s-54.479-20.186-61.63-47.542l-0.098-0.443h-34.272v-32h34.272c7.249-27.799 32.131-47.985 61.728-47.985s54.479 20.186 61.63 47.542l0.098 0.443zM480 432c0 17.673 14.327 32 32 32s32-14.327 32-32c0-17.673-14.327-32-32-32v0c-17.673 0-32 14.327-32 32v0zM848 256h32v-32h-32v32zM263.12 643.744c-4.524 18.030-7.12 38.729-7.12 60.034 0 63.41 22.995 121.449 61.102 166.233l-0.302-0.363-24.384 20.704c-42.554-49.939-68.441-115.213-68.441-186.534 0-23.977 2.926-47.271 8.44-69.545l-0.415 1.982zM496 672h32v-32h-32v32zM496 608h32v-32h-32v32z" />
<glyph unicode="&#xe910;" glyph-name="drill" d="M911.28 800h-154.48l-43.92 29.312c-2.497 1.679-5.571 2.683-8.879 2.688h-112.001c-3.309-0.005-6.383-1.009-8.938-2.725l0.058 0.037-43.92-29.312h-219.2c-3.044-0.001-5.889-0.852-8.311-2.328l0.071 0.040-80-48c-4.68-2.847-7.759-7.92-7.76-13.712v0-5.168l-69.952-27.968c-5.939-2.427-10.048-8.159-10.048-14.852 0-0.004 0-0.009 0-0.013v0.001-16h-112v-32h112v-16c0-0.004 0-0.008 0-0.012 0-6.692 4.109-12.425 9.941-14.813l0.107-0.039 69.952-27.968v-5.168c0.001-5.792 3.080-10.865 7.689-13.672l0.071-0.040 80-48c2.351-1.436 5.196-2.287 8.24-2.288h96v-48c0-8.837 7.163-16 16-16v0h16v-208c0-26.51 21.49-48 48-48s48 21.49 48 48v0 208h16c8.837 0 16 7.163 16 16v0 48h67.504l6.912-27.648c5.394-21.045 24.192-36.352 46.565-36.352 0.004 0 0.008 0 0.011 0h25.887l8.288-41.408c4.586-22.139 23.907-38.548 47.067-38.592h21.445l32.64-163.2c1.541-7.355 7.973-12.8 15.677-12.8 0.001 0 0.002 0 0.003 0h32v-32c0-8.837-7.163-16-16-16v0h-624c-26.51 0-48-21.49-48-48s21.49-48 48-48v0h480c8.837 0 16-7.163 16-16s-7.163-16-16-16v0h-368v-32h368c26.51 0 48 21.49 48 48s-21.49 48-48 48v0h-480c-8.837 0-16 7.163-16 16s7.163 16 16 16v0h624c26.51 0 48 21.49 48 48v0 32h32c8.837 0 16 7.163 16 16v0 428.224l23.472 46.976c5.367 10.512 8.512 22.929 8.512 36.080 0 44.575-36.131 80.711-80.704 80.72h-0.001zM544 768c3.309 0.005 6.383 1.009 8.938 2.725l-0.058-0.037 43.92 29.312h43.2v-256h-256v224zM176 634.832v42.336l48 19.2v-80.736zM324.432 544l-68.432 41.056v141.888l68.432 41.056h27.568v-32h-32v-32h32v-32h-32v-32h32v-32h-32v-32h32v-32zM512 240c0-8.837-7.163-16-16-16s-16 7.163-16 16v0 208h32zM544 480h-96v32h96zM778.24 400c-0.006 0-0.012 0-0.019 0-7.704 0-14.136 5.445-15.658 12.696l-0.018 0.104-10.864 54.4c-1.541 7.355-7.973 12.8-15.677 12.8-0.001 0-0.002 0-0.003 0h-39.008c-0.003 0-0.008 0-0.012 0-7.462 0-13.73 5.108-15.5 12.017l-0.024 0.111-4.96 19.872h94.4l22.4-112zM861.12 224l-6.4 32h73.28v-32zM954.848 697.488l-25.168-50.336c-1.059-2.080-1.68-4.536-1.68-7.137 0-0.005 0-0.011 0-0.016v0.001-352h-79.68l-48.64 243.2c-1.541 7.355-7.973 12.8-15.677 12.8-0.001 0-0.002 0-0.003 0h-112v256h27.2l43.968-29.312c2.484-1.671 5.54-2.672 8.828-2.688h159.284c0.006 0 0.013 0 0.019 0 26.898 0 48.704-21.806 48.704-48.704 0-7.95-1.905-15.455-5.283-22.084l0.128 0.276zM288 16h32v-32h-32v32zM416 640h34.272c7.249-27.799 32.131-47.985 61.728-47.985s54.479 20.186 61.63 47.542l0.098 0.443h34.272v32h-34.272c-7.249 27.799-32.131 47.985-61.728 47.985s-54.479-20.186-61.63-47.542l-0.098-0.443h-34.272zM512 688c17.673 0 32-14.327 32-32s-14.327-32-32-32c-17.673 0-32 14.327-32 32v0c0 17.673 14.327 32 32 32v0zM880 736h32v-32h-32v32zM816 736h32v-32h-32v32zM752 736h32v-32h-32v32zM368 896h464v-32h-464v32zM864 896h32v-32h-32v32z" />
<glyph unicode="&#xe911;" glyph-name="dump-truck" d="M878.896 80h33.104c4.418 0.001 8.417 1.792 11.312 4.688l64 64c2.896 2.895 4.687 6.894 4.688 11.312v0 224c0 8.837-7.163 16-16 16v0h-19.776l-39.28 144h11.056c8.837 0 16 7.163 16 16v0 64c0 8.837-7.163 16-16 16v0h-192c-8.837 0-16-7.163-16-16v0-281.376l-54.624-54.624h-57.376v60.8l49.024 3.2c7.875 0.481 14.182 6.59 14.97 14.332l0.006 0.068 30.48 305.6h161.52v32h-176c0 0 0 0 0 0-8.273 0-15.080-6.279-15.914-14.331l-0.006-0.069-8.080-81.6h-584c-0.005 0-0.011 0-0.017 0-8.837 0-16-7.163-16-16 0-1.714 0.27-3.365 0.769-4.913l-0.032 0.113 80-256c2.105-6.546 8.141-11.2 15.263-11.2 0.006 0 0.012 0 0.018 0h-0.001c0.336 0 0.672 0 1.024 0l14.976 0.96v-32.96h-96c-8.837 0-16-7.163-16-16v0-128h-32v-32h32v-16c0-8.837 7.163-16 16-16v0h65.104c4.181-32.083 19.716-59.928 42.371-79.878l0.141-0.122h-91.616v-32h896v32h-155.616c22.796 20.072 38.331 47.917 42.443 79.355l0.069 0.645zM960 230.848l-144 52.352v84.8h144zM923.056 400h-107.056v144h67.776zM576 288h-32v56.736l32 2.064zM512 342.672v-54.672h-240v39.184zM660.8 576l-3.2-32h-545.84l-10 32zM121.76 512h532.64l-12.896-128.912-469.984-30.32zM208 323.056l32 2.064v-37.12h-32zM96 256h576c4.418 0.001 8.417 1.792 11.312 4.688l64 64c2.896 2.895 4.687 6.894 4.688 11.312v0 272h160v-32h-112c-8.837 0-16-7.163-16-16v0-288c0-0.001 0-0.003 0-0.005 0-6.873 4.334-12.734 10.417-14.999l0.111-0.036 165.472-60.16v-30.16l-54.624-54.64h-26.48c-8.178 63.458-61.87 111.99-126.896 111.99s-118.718-48.532-126.829-111.35l-0.067-0.64h-226.208c-8.178 63.458-61.87 111.99-126.896 111.99s-118.718-48.532-126.829-111.35l-0.067-0.64h-49.104zM176 96c0 53.019 42.981 96 96 96s96-42.981 96-96c0-53.019-42.981-96-96-96v0c-52.997 0.055-95.945 43.003-96 95.995v0.005zM356.384 0c22.796 20.072 38.331 47.917 42.443 79.355l0.069 0.645h226.208c4.181-32.083 19.716-59.928 42.371-79.878l0.141-0.122zM656 96c0 53.019 42.981 96 96 96s96-42.981 96-96c0-53.019-42.981-96-96-96v0c-52.997 0.055-95.945 43.003-96 95.995v0.005zM752 160c-35.346 0-64-28.654-64-64s28.654-64 64-64c35.346 0 64 28.654 64 64v0c0 35.346-28.654 64-64 64v0zM752 64c-17.673 0-32 14.327-32 32s14.327 32 32 32c17.673 0 32-14.327 32-32v0c0-17.673-14.327-32-32-32v0zM272 160c-35.346 0-64-28.654-64-64s28.654-64 64-64c35.346 0 64 28.654 64 64v0c0 35.346-28.654 64-64 64v0zM272 64c-17.673 0-32 14.327-32 32s14.327 32 32 32c17.673 0 32-14.327 32-32v0c0-17.673-14.327-32-32-32v0zM848 336h32v-32h-32v32zM32 0h32v-32h-32v32zM208 672h368v-32h-368v32z" />
<glyph unicode="&#xe912;" glyph-name="envelope" d="M921.6 652.8l-409.6-256-409.6 256v102.4l409.6-256 409.6 256v-102.4zM921.6 857.6h-819.2c-56.311-0.32-101.837-46.042-101.837-102.398 0-0.001 0-0.001 0-0.002v0l-0.563-614.4c0.145-56.495 45.905-102.255 102.386-102.4h819.214c56.484 0.174 102.226 45.916 102.4 102.383v614.417c-0.174 56.484-45.916 102.226-102.383 102.4h-0.017z" />
<glyph unicode="&#xe913;" glyph-name="excavator" d="M32 0h32v-32h-32v32zM560 80c0-26.51 21.49-48 48-48s48 21.49 48 48c0 26.51-21.49 48-48 48v0c-26.51 0-48-21.49-48-48v0zM624 80c0-8.837-7.163-16-16-16s-16 7.163-16 16c0 8.837 7.163 16 16 16v0c8.837 0 16-7.163 16-16v0zM480 128c-26.51 0-48-21.49-48-48s21.49-48 48-48c26.51 0 48 21.49 48 48v0c0 26.51-21.49 48-48 48v0zM480 64c-8.837 0-16 7.163-16 16s7.163 16 16 16c8.837 0 16-7.163 16-16v0c0-8.837-7.163-16-16-16v0zM352 128c-26.51 0-48-21.49-48-48s21.49-48 48-48c26.51 0 48 21.49 48 48v0c0 26.51-21.49 48-48 48v0zM352 64c-8.837 0-16 7.163-16 16s7.163 16 16 16c8.837 0 16-7.163 16-16v0c0-8.837-7.163-16-16-16v0zM224 128c-26.51 0-48-21.49-48-48s21.49-48 48-48c26.51 0 48 21.49 48 48v0c0 26.51-21.49 48-48 48v0zM224 64c-8.837 0-16 7.163-16 16s7.163 16 16 16c8.837 0 16-7.163 16-16v0c0-8.837-7.163-16-16-16v0zM935.376 607.248l-168.128 168.128c-3.636 32.010-30.564 56.652-63.248 56.652s-59.612-24.641-63.221-56.36l-0.027-0.292-215.376-215.376h-121.376c-8.837 0-16-7.163-16-16v0-144h-16c-8.837 0-16-7.163-16-16v0-128h-32c-0.197 0.001-0.431 0.001-0.665 0.001-57.182 0-107.947-27.478-139.811-69.949l-0.325-0.452 25.6-19.2c23.301 31.061 58.417 52.167 98.556 56.63l0.644 0.058v-32.368c-54.572-8.008-95.997-54.502-95.997-110.67 0-31.371 12.922-59.724 33.734-80.027l0.023-0.022h-49.76v-32h896v32h-305.76c20.835 20.325 33.757 48.678 33.757 80.050 0 56.169-41.424 102.662-95.389 110.597l-0.607 0.073v32.368c40.785-4.515 75.903-25.623 98.935-56.319l0.265-0.369 25.6 19.2c-32.185 42.923-82.947 70.401-140.127 70.401-0.236 0-0.473 0-0.709-0.001h-15.964v64c0 8.837-7.163 16-16 16v0h-32v112c-0.001 25.256-8.418 48.547-22.6 67.219l0.2-0.275 182.4 182.432 160.752-160.752c1.362-11.772 5.768-22.312 12.403-31.070l-0.115 0.158-57.44-172.32-55.488-13.872 7.776-31.040 64 16 106 23.52c28.86 6.437 50.113 31.826 50.113 62.179 0 0.117 0 0.234-0.001 0.351v-0.018 73.488c0 0.003 0 0.008 0 0.012 0 1.804-0.299 3.539-0.849 5.157l0.033-0.113-12.224 36.656c8.133 10.551 13.036 23.956 13.036 38.507 0 32.625-24.645 59.493-56.334 63.004l-0.286 0.026zM960 544c0-17.673-14.327-32-32-32s-32 14.327-32 32c0 17.673 14.327 32 32 32v0c17.673 0 32-14.327 32-32v0zM465.504 554.88l182.592 182.592c5.978-10.758 14.618-19.398 25.050-25.209l0.326-0.167-174.528-174.496c-9.553 7.268-20.656 13.148-32.649 17.057l-0.791 0.223zM759.904 737.472l137.6-137.6c-10.758-5.978-19.398-14.618-25.209-25.050l-0.167-0.326-137.6 137.6c10.758 5.978 19.398 14.618 25.209 25.050l0.167 0.326zM704 800c17.673 0 32-14.327 32-32s-14.327-32-32-32c-17.673 0-32 14.327-32 32v0c0 17.673 14.327 32 32 32v0zM320 528h48v-128h-48zM240 192v32h352v-32zM688 80c-0.055-44.161-35.839-79.945-79.995-80h-384.005c-44.183 0-80 35.817-80 80s35.817 80 80 80v0h384c44.161-0.055 79.945-35.839 80-79.995v-0.005zM560 256h-272v112h80v-48c0-8.837 7.163-16 16-16v0h176zM400 336v192h32c44.161-0.055 79.945-35.839 80-79.995v-112.005zM960 390.512c0-0.045 0-0.099 0-0.152 0-15.178-10.626-27.874-24.844-31.056l-0.212-0.040-78.832-17.52 47.696 143.056c7.148-3.046 15.463-4.816 24.192-4.816s17.044 1.77 24.606 4.972l-0.414-0.156 7.808-23.392zM388.688 619.322l15.998 15.998 22.627-22.627-15.998-15.998-22.627 22.627zM420.689 651.314l175.996 175.996 22.627-22.627-175.996-175.996-22.627 22.627z" />
<glyph unicode="&#xe914;" glyph-name="floor-plan" d="M976 816h-48v32c0 8.837-7.163 16-16 16v0h-48v31.856c0 8.837-7.163 16-16 16v0l-64 0.144c-8.837 0-16-7.163-16-16v0-32h-656c-44.161-0.055-79.945-35.839-80-79.995v-736.005c0.055-44.161 35.839-79.945 79.995-80h112.005c8.837 0 16 7.163 16 16v0 48h736c8.837 0 16 7.163 16 16v0 752c0 8.837-7.163 16-16 16v0zM832 768h-32v32h32zM832 736v-352h-32v352zM831.2 352l-15.2-45.408-15.136 45.504zM832 879.888v-47.888h-32v48zM112 832h656v-480c0.006-1.804 0.304-3.536 0.85-5.155l-0.034 0.115 32-96c2.165-6.444 8.15-11.004 15.2-11.004s13.035 4.56 15.167 10.891l0.033 0.113 32 95.856c0.497 1.478 0.784 3.179 0.784 4.948 0 0.032 0 0.065 0 0.097v-0.005 480.144h32v-704h-784c-18.156-0.063-34.86-6.229-48.181-16.551l0.181 0.135v672.416c0 26.51 21.49 48 48 48v0zM960 64h-864v-32h112v-32h-96c-26.51 0-48 21.49-48 48s21.49 48 48 48v0h800c8.837 0 16 7.163 16 16v0 672h32zM144 208h80v32h-64v256h64v32h-64v192h192v-192h-64v-32h176v-96h32v96h64v32h-176v192h288v-192h-48v-32h48v-256h-176v96h-32v-96h-176v-32h400c8.837 0 16 7.163 16 16v0 512c0 8.837-7.163 16-16 16v0h-544c-8.837 0-16-7.163-16-16v0-512c0-8.837 7.163-16 16-16v0zM512 0h416v-32h-416v32zM176 928h416v-32h-416v32zM448 0h32v-32h-32v32z" />
<glyph unicode="&#xe915;" glyph-name="forklift" d="M240 160c-35.346 0-64-28.654-64-64s28.654-64 64-64c35.346 0 64 28.654 64 64v0c0 35.346-28.654 64-64 64v0zM240 64c-17.673 0-32 14.327-32 32s14.327 32 32 32c17.673 0 32-14.327 32-32v0c0-17.673-14.327-32-32-32v0zM592 160c-35.346 0-64-28.654-64-64s28.654-64 64-64c35.346 0 64 28.654 64 64v0c0 35.346-28.654 64-64 64v0zM592 64c-17.673 0-32 14.327-32 32s14.327 32 32 32c17.673 0 32-14.327 32-32v0c0-17.673-14.327-32-32-32v0zM32 0h32v-32h-32v32zM976 192h-128v352c0 8.837-7.163 16-16 16v0h-64c-8.837 0-16-7.163-16-16v0-256h-47.696c-27.076 57.167-84.298 96-150.591 96-0.040 0-0.080 0-0.12 0h-9.594v16c-0.173 150.152-121.848 271.827-271.983 272h-128.017c-8.837 0-16-7.163-16-16v0-304h-48c-8.837 0-16-7.163-16-16v0-128c0-0.002 0-0.004 0-0.006 0-6.698 4.116-12.435 9.957-14.82l0.107-0.039 60.8-24.32c-14.306-20.314-22.865-45.573-22.865-72.83 0-38.217 16.825-72.505 43.471-95.86l0.146-0.125h-59.616v-32h896v32h-315.616c26.776 23.498 43.594 57.783 43.616 95.996v80.004h32v-64c0-8.837 7.163-16 16-16v0h208c8.837 0 16 7.163 16 16v0 64c0 8.837-7.163 16-16 16v0zM272 640c130.206-0.194 236.104-103.996 239.673-233.366l0.007-0.33-63.68 21.216v36.48h-32v-96h32v25.808l64-21.328v-50.352l-177.088 22.128-18.928 123.12c-7.296 47.441-44.457 84.397-91.394 91.305l-0.59 0.071v81.248zM465.408 113.952l-101.264 12.656c-10.21 40.225-38.399 72.302-75.295 87.655l-0.849 0.313v103.296l224-28v-94.112c-24.718-19.942-41.758-48.536-46.509-81.117l-0.083-0.691zM224 526.208c31.406-6.628 55.437-31.791 60.298-63.283l0.054-0.429 17.6-114.112-27.92 3.488c-0.609 0.081-1.315 0.127-2.031 0.128h-48.001zM160 640h32v-288h-32zM128 320v-32h-32v32zM96 256h48c8.837 0 16 7.163 16 16v0 48h96v-97.104c-4.773 0.666-10.321 1.066-15.954 1.104h-0.046c-0.020 0-0.043 0-0.066 0-31.335 0-60.028-11.312-82.218-30.075l0.188 0.155-61.904 24.752zM144 96c0 53.019 42.981 96 96 96s96-42.981 96-96c0-53.019-42.981-96-96-96v0c-52.997 0.055-95.945 43.003-96 95.995v0.005zM324.384 0c26.228 23.055 42.875 56.467 43.503 93.778l0.001 0.11 96.944-12.112c3.807-32.789 19.523-61.33 42.641-81.653l0.143-0.123zM592 0c-53.019 0-96 42.981-96 96s42.981 96 96 96c53.019 0 96-42.981 96-96v0c-0.055-52.997-43.003-95.945-95.995-96h-0.005zM592 224c-17.307-0.005-33.805-3.467-48.841-9.735l0.841 0.311v137.424h9.6c74.227 0 134.4-60.173 134.4-134.4 0-0.028 0-0.056 0-0.084v0.004-37.136c-23.498 26.776-57.783 43.594-95.996 43.616h-0.004zM720 208v9.52c-0.052 13.681-1.753 26.94-4.913 39.622l0.241-1.142h36.672v-48zM960 128h-176v400h32v-352c0-8.837 7.163-16 16-16v0h128zM320 288h32v-32h-32v32zM572.592 445.632l31.664 4.8c-20.25 126.401-108.118 228.176-224.691 268.091l-2.381 0.709-10-30.4c107.615-36.758 187.102-128.841 205.176-241.449l0.232-1.751z" />
<glyph unicode="&#xe916;" glyph-name="gloves" d="M592.368 299.072l31.376-17.936c19.382-11.248 32.217-31.889 32.256-55.53v-33.606c-8.837 0-16-7.163-16-16v0-128c0-8.837 7.163-16 16-16v0h288c8.837 0 16 7.163 16 16v0 128c0 8.837-7.163 16-16 16v0 76.272c20.121 40.673 31.924 88.549 32 139.174v280.554c0 30.928-25.072 56-56 56v0c-8.834-0.052-17.161-2.168-24.541-5.889l0.317 0.145c-0.958 29.886-25.415 53.749-55.445 53.749-8.856 0-17.227-2.075-24.654-5.766l0.323 0.145v13.616c0.001 0.122 0.002 0.266 0.002 0.41 0 30.875-25.029 55.904-55.904 55.904-30.226 0-54.849-23.987-55.871-53.964l-0.003-0.094c-7.063 3.576-15.39 5.692-24.207 5.744h-0.017c-30.928 0-56-25.072-56-56v0-125.616c-7.006 3.497-15.256 5.565-23.983 5.616h-0.017c-30.928 0-56-25.072-56-56v0-193.6c0.065-35.472 19.307-66.435 47.909-83.081l0.459-0.247zM928 64h-256v96h256zM935.328 338.048l-184.32 36.8c-17.794 3.666-30.983 19.204-30.983 37.821 0 20.446 15.907 37.177 36.020 38.493l0.115 0.006 187.84 11.808v-55.424c-0.046-24.706-3.206-48.653-9.109-71.496l0.437 1.992zM576 576c0 13.255 10.745 24 24 24s24-10.745 24-24v0-144h32v320c0 13.255 10.745 24 24 24s24-10.745 24-24v0-192h32v240c0 13.255 10.745 24 24 24s24-10.745 24-24v0-256h32v192c0 13.255 10.745 24 24 24s24-10.745 24-24v0-208h32v160c0 13.255 10.745 24 24 24s24-10.745 24-24v0-192.976l-189.84-11.824c-37.017-2.408-66.129-33.022-66.129-70.436 0-34.063 24.132-62.49 56.232-69.117l0.456-0.079 181.12-36.224c-4.255-11.498-8.351-20.783-12.91-29.795l0.75 1.635c-1.059-2.080-1.68-4.536-1.68-7.137 0-0.016 0-0.033 0-0.049v0.003-80h-224v33.6c-0.053 35.484-19.298 66.462-47.909 83.113l-0.459 0.247-31.376 17.936c-19.373 11.243-32.205 31.869-32.256 55.497v0.007zM864 128h32v-32h-32v32zM80 192c-8.837 0-16-7.163-16-16v0-128c0-8.837 7.163-16 16-16v0h288c8.837 0 16 7.163 16 16v0 128c0 8.837-7.163 16-16 16v0 33.6c0.027 23.66 12.865 44.315 31.949 55.404l0.307 0.164 31.376 17.936c29.052 16.887 48.291 47.836 48.368 83.285v193.611c0 30.928-25.072 56-56 56v0c-8.744-0.051-16.994-2.119-24.322-5.761l0.322 0.145v125.616c0 30.928-25.072 56-56 56v0c-8.834-0.052-17.161-2.168-24.541-5.889l0.317 0.145c-1.025 30.070-25.648 54.058-55.874 54.058-30.875 0-55.904-25.029-55.904-55.904 0-0.144 0.001-0.288 0.002-0.432v0.022-13.616c-7.104 3.545-15.475 5.621-24.331 5.621-30.030 0-54.487-23.863-55.443-53.661l-0.002-0.088c-7.063 3.576-15.39 5.692-24.207 5.744h-0.017c-30.928 0-56-25.072-56-56v0-280.448c0.076-50.65 11.879-98.526 32.838-141.082l-0.838 1.882zM80 407.552v55.424l187.84-11.744c20.228-1.322 36.135-18.053 36.135-38.499 0-18.618-13.189-34.155-30.733-37.778l-0.25-0.043-184.32-36.8c-5.461 20.831-8.621 44.754-8.672 69.408v0.032zM352 64h-256v96h256zM104 712c13.255 0 24-10.745 24-24v0-160h32v208c0 13.255 10.745 24 24 24s24-10.745 24-24v0-192h32v256c0 13.255 10.745 24 24 24s24-10.745 24-24v0-240h32v192c0 13.255 10.745 24 24 24s24-10.745 24-24v0-320h32v144c0 13.255 10.745 24 24 24s24-10.745 24-24v0-193.6c-0.027-23.66-12.865-44.315-31.949-55.404l-0.307-0.164-31.376-17.936c-29.052-16.887-48.291-47.836-48.368-83.285v-33.611h-224v80c0 0.004 0 0.010 0 0.015 0 2.601-0.621 5.057-1.722 7.228l0.042-0.091c-3.809 7.377-7.905 16.662-11.507 26.191l-0.653 1.969 181.12 36.224c32.557 6.706 56.689 35.133 56.689 69.196 0 37.413-29.112 68.027-65.919 70.425l-0.21 0.011-189.84 11.856v192.976c0 13.255 10.745 24 24 24v0zM128 128h32v-32h-32v32zM416 32c0-17.673-14.327-32-32-32v0h-192v-32h192c35.346 0 64 28.654 64 64v0 112h-32zM128 0h32v-32h-32v32zM688 0h256v-32h-256v32z" />
<glyph unicode="&#xe917;" glyph-name="hammer" d="M832 624v192c0 26.51-21.49 48-48 48v0h-544c-26.51 0-48-21.49-48-48v0-192c0-26.51 21.49-48 48-48v0h208v-478.864l-6.784-47.536c-0.458-3.041-0.72-6.551-0.72-10.122 0-39.491 32.013-71.504 71.504-71.504s71.504 32.013 71.504 71.504c0 3.571-0.262 7.080-0.767 10.511l0.047-0.389-6.784 47.536v478.864h208c26.51 0 48 21.49 48 48v0zM800 816v-16h-153.376l-32 32h169.376c8.837 0 16-7.163 16-16v0zM454.624 832h114.752l59.312-59.312c2.895-2.896 6.894-4.687 11.312-4.688h160v-96h-160c-4.418-0.001-8.417-1.792-11.312-4.688l-59.312-59.312h-114.752l-59.312 59.312c-2.895 2.896-6.894 4.687-11.312 4.688h-160v96h160c4.418 0.001 8.417 1.792 11.312 4.688v0zM240 832h169.376l-32-32h-153.376v16c0 8.837 7.163 16 16 16v0zM224 624v16h153.376l32-32h-169.376c-8.837 0-16 7.163-16 16v0zM480 112v32h64v-32zM480 176v32h64v-32zM480 240v32h64v-32zM480 304v216.896c9.129-5.587 20.178-8.896 32-8.896s22.871 3.309 32.272 9.051l-0.272-0.155v-216.896zM541.84 13.632c-7.466-7.998-18.071-12.983-29.84-12.983s-22.374 4.985-29.818 12.959l-0.022 0.024c-6.001 6.889-9.66 15.956-9.66 25.877 0 1.968 0.144 3.903 0.422 5.794l-0.026-0.215 4.976 34.912h68.256l4.976-34.912c0.252-1.676 0.396-3.611 0.396-5.579 0-9.921-3.659-18.988-9.701-25.924l0.041 0.048zM512 544c-17.673 0-32 14.327-32 32v0h64c0-17.673-14.327-32-32-32v0zM784 608h-169.376l32 32h153.376v-16c0-8.837-7.163-16-16-16v0zM288 928h304v-32h-304v32zM624 928h32v-32h-32v32zM608 480h32v-352h-32v352z" />
<glyph unicode="&#xe918;" glyph-name="hand-saw" d="M192-32h192c26.51 0 48 21.49 48 48v0 384c0 8.837-7.163 16-16 16v0h-16v496c0 8.837-7.163 16-16 16v0h-144c-0.018 0-0.039 0-0.061 0-8.347 0-15.2-6.391-15.935-14.546l-0.004-0.062-63.44-730.192-11.872-11.888c-2.896-2.895-4.687-6.894-4.688-11.312v0-144c0-26.51 21.49-48 48-48v0zM400 16c0-8.837-7.163-16-16-16v0h-192c-8.837 0-16 7.163-16 16v0 137.376l75.312 75.312c2.896 2.895 4.687 6.894 4.688 11.312v0 73.376l70.624 70.624h73.376zM254.672 896h113.328v-480h-48c-4.418-0.001-8.417-1.792-11.312-4.688l-80-80c-2.896-2.895-4.687-6.894-4.688-11.312v0-73.376l-28.256-28.256zM256 128c-26.51 0-48-21.49-48-48s21.49-48 48-48v0h64c26.51 0 48 21.49 48 48s-21.49 48-48 48v0zM336 80c0-8.837-7.163-16-16-16v0h-64c-8.837 0-16 7.163-16 16s7.163 16 16 16v0h64c8.837 0 16-7.163 16-16v0zM304 864h32v-32h-32v32zM816 176v48h48c8.837 0 16 7.163 16 16v0 480c-0.091 79.492-64.508 143.909-143.991 144h-128.009v32h32v32h-96v-32h32v-32h-32c-26.51 0-48-21.49-48-48s21.49-48 48-48v0-448c-26.51 0-48-21.49-48-48s21.49-48 48-48v0h112v-48c0-8.837 7.163-16 16-16v0h14.624l-10.576-126.848c-0.132-1.497-0.208-3.239-0.208-4.998 0-33.225 26.935-60.16 60.16-60.16s60.16 26.935 60.16 60.16c0 1.759-0.076 3.501-0.224 5.222l0.016-0.224-10.576 126.848h14.624c8.837 0 16 7.163 16 16v0zM576 768h32v-448h-32zM720 768c35.346 0 64-28.654 64-64v0-384h-144v448zM528 272c0 8.837 7.163 16 16 16v0h256c8.837 0 16 7.163 16 16v0 400c-0.055 52.997-43.003 95.945-95.995 96h-176.005c-8.837 0-16 7.163-16 16s7.163 16 16 16v0h192c61.823-0.082 111.918-50.177 112-111.992v-464.008h-304c-8.837 0-16 7.163-16 16v0zM784 224v-32h-96v32zM764.080 30.496c0.067-0.726 0.105-1.569 0.105-2.422 0-7.341-2.833-14.020-7.465-19.003l0.016 0.017c-5.246-5.437-12.597-8.814-20.736-8.814s-15.49 3.376-20.728 8.805l-0.008 0.009c-4.616 4.966-7.449 11.645-7.449 18.986 0 0.853 0.038 1.696 0.113 2.529l-0.008-0.107 10.8 129.504h34.56zM104.799 273.449l2.917 31.995 31.868-2.906-2.917-31.995-31.868 2.906zM110.671 337.327l39.12 464.018 31.871-2.687-39.12-464.018-31.871 2.687zM912 528h32v-256h-32v256z" />
<glyph unicode="&#xe919;" glyph-name="hard-hat" d="M603.6 757.168c-12.843 25.534-38.809 42.762-68.807 42.832h-45.577c-30.037-0.070-56.034-17.302-68.71-42.406l-0.202-0.442c-177.693-43.504-307.598-201.059-308.304-389.073v-34.351c-27.792-7.328-47.952-32.238-47.952-61.856 0-35.276 28.596-63.872 63.872-63.872 0.028 0 0.056 0 0.084 0h24.492c21.584-23.504 108.496-96 359.504-96s337.92 72.496 359.504 96h24.496c0.024 0 0.052 0 0.080 0 35.276 0 63.872 28.596 63.872 63.872 0 29.618-20.16 54.528-47.506 61.756l-0.445 0.1v34.272c-0.71 188.125-130.661 345.7-305.647 388.597l-2.753 0.571zM928 272c0-17.673-14.327-32-32-32v0h-32c-0.001 0-0.002 0-0.002 0-5.527 0-10.399-2.802-13.273-7.063l-0.036-0.057c-0.592-0.88-62.448-88.88-338.688-88.88-272.928 0-338.176 88.16-338.688 88.88-2.911 4.318-7.783 7.12-13.31 7.12-0.001 0-0.002 0-0.003 0h-32c-17.673 0-32 14.327-32 32s14.327 32 32 32v0h48v32h-32v32c0.579 136.381 74.884 255.277 185.096 318.953l1.784 0.951-26.688-173.472 31.616-4.8 30.144 195.968c12.436 5.625 27.717 11.221 43.436 15.79l2.58 0.642-11.968-144.72 32-2.624 12.448 151.216c1.564 23.525 20.994 42.025 44.761 42.096h45.575c23.879-0.098 43.369-18.756 44.794-42.29l0.006-0.126 12.416-150.896 32 2.624-11.936 144.656c18.284-5.185 33.556-10.761 48.313-17.287l-2.329 0.919 30.144-195.968 31.616 4.8-26.688 173.472c111.996-64.627 186.301-183.523 186.88-319.822v-32.082h-32v-32h48c17.673 0 32-14.327 32-32v0zM600.224 275.504c20.684 19.691 34.746 46.171 38.604 75.855l0.068 0.641h33.104v32h-33.104c-8.178 63.458-61.87 111.99-126.896 111.99s-118.718-48.532-126.829-111.35l-0.067-0.64h-33.104v-32h33.104c3.926-30.325 17.988-56.805 38.619-76.446l0.053-0.050c-59.23 3.766-114.524 15.189-166.674 33.328l4.386-1.328-10.976-30.064c68.176-24.832 156.16-37.44 261.488-37.44s193.312 12.608 261.488 37.472l-10.976 30.064c-47.762-16.821-103.055-28.255-160.456-31.938l-1.832-0.094zM416 368c0 53.019 42.981 96 96 96s96-42.981 96-96c0-53.019-42.981-96-96-96v0c-52.997 0.055-95.945 43.003-96 95.995v0.005zM512 336c-17.673 0-32 14.327-32 32s14.327 32 32 32v0 32c-35.346 0-64-28.654-64-64s28.654-64 64-64c35.346 0 64 28.654 64 64v0h-32c0-17.673-14.327-32-32-32v0zM313.136 787.344c-13.68-6.496-27.2-13.776-40.272-21.648l16.496-27.392c12.16 7.312 24.784 14.080 37.504 20.128zM265.6 722.864l-18.288 26.272c-103.238-72.541-175.031-183.83-194.308-312.304l-0.316-2.56 31.68-4.544c18.242 122 85.097 225.614 179.852 292.216l1.38 0.92zM893.12 150.848l-26.24 18.304c-0.576-0.816-64.72-82.64-323.2-88.784l0.736-32c278.736 6.624 345.984 98.576 348.704 102.48z" />
<glyph unicode="&#xe91a;" glyph-name="high-visibility" d="M957.984 823.776c-2.223 3.941-5.961 6.805-10.405 7.819l-0.107 0.021-288 64c-1.041 0.244-2.236 0.384-3.463 0.384-0.003 0-0.006 0-0.009 0h-288c-0.003 0-0.006 0-0.009 0-1.228 0-2.422-0.14-3.57-0.405l0.106 0.021-288-64c-7.223-1.645-12.533-8.012-12.533-15.62 0-1.896 0.33-3.716 0.936-5.404l-0.035 0.112 111.104-317.424v-477.28c0-8.837 7.163-16 16-16v0h640c8.837 0 16 7.163 16 16v0 477.28l111.104 317.424c0.57 1.576 0.9 3.395 0.9 5.29 0 2.857-0.749 5.54-2.061 7.862l0.041-0.080zM816 496v-16h-224v48h234.24l-9.344-26.704c-0.565-1.578-0.893-3.398-0.896-5.295v-0.001zM656 144h96v-32h-96zM592 176v48h224v-48zM272 144h96v-32h-96zM208 176v48h224v-48zM427.744 560h-91.744v296.496l20.080 4.464zM432 256h-32v48c0 8.837-7.163 16-16 16v0h-128c-8.837 0-16-7.163-16-16v0-48h-32v192h224zM368 256h-96v32h96zM304 560h-48v278.72l48 10.672zM432 528v-48h-224v16c-0.003 1.898-0.331 3.718-0.931 5.409l0.035-0.113-9.344 26.704zM463.568 547.696l-75.312 316.304h247.488l-75.312-316.304c-0.275-1.105-0.432-2.374-0.432-3.68 0-0.006 0-0.011 0-0.017v0.001-512h-96v512c0 0.005 0 0.011 0 0.016 0 1.306-0.157 2.575-0.455 3.789l0.023-0.109zM596.256 560l71.664 300.96 20.080-4.464v-296.496zM752 256h-96v32h96zM784 256v48c0 8.837-7.163 16-16 16v0h-128c-8.837 0-16-7.163-16-16v0-48h-32v192h224v-192zM720 560v289.392l48-10.672v-278.72zM101.040 804.288l122.96 27.328v-271.616h-37.44zM208 144h32v-48c0-8.837 7.163-16 16-16v0h128c8.837 0 16 7.163 16 16v0 48h32v-112h-224zM592 32v112h32v-48c0-8.837 7.163-16 16-16v0h128c8.837 0 16 7.163 16 16v0 48h32v-112zM837.44 560h-37.44v271.616l122.96-27.328zM880 368h32v-304h-32v304zM112 400h32v80c-0.003 1.898-0.331 3.718-0.931 5.409l0.035-0.113-89.6 256-30.224-10.592 88.72-253.424zM880 432h32v-32h-32v32z" />
<glyph unicode="&#xe91b;" glyph-name="jackhammer" d="M32 0h32v-32h-32v32zM896 112c0 8.837-7.163 16-16 16v0h-304c-4.418-0.001-8.417-1.792-11.312-4.688l-52.688-52.688-52.688 52.688c-2.895 2.896-6.894 4.687-11.312 4.688h-304c-8.837 0-16-7.163-16-16v0-112h-32v-32h896v32h-96zM160 0v96h281.376l59.312-59.312c2.895-2.894 6.895-4.685 11.312-4.685s8.417 1.79 11.312 4.685l59.312 59.312h281.376v-96zM752 864h-80c0 35.346-28.654 64-64 64v0h-192c-35.346 0-64-28.654-64-64v0h-80c-8.837 0-16-7.163-16-16v0-16h-144c-26.51 0-48-21.49-48-48s21.49-48 48-48v0h144v-16c0-8.837 7.163-16 16-16v0h80v-16c0.001-4.418 1.792-8.417 4.688-11.312l64-64c2.895-2.896 6.894-4.687 11.312-4.688v0-224c0.001-4.418 1.792-8.417 4.688-11.312l27.312-27.312v-185.376c0.001-4.418 1.792-8.417 4.688-11.312l32-32c2.895-2.894 6.895-4.685 11.312-4.685s8.417 1.79 11.312 4.685l32 32c2.896 2.895 4.687 6.894 4.688 11.312v0 185.376l27.312 27.312c2.896 2.895 4.687 6.894 4.688 11.312v0 224c4.418 0.001 8.417 1.792 11.312 4.688l64 64c2.896 2.895 4.687 6.894 4.688 11.312v0 16h16v-352c0-26.51 21.49-48 48-48s48 21.49 48 48v0 224c0 8.837 7.163 16 16 16s16-7.163 16-16v0-128h32v128c0 26.51-21.49 48-48 48s-48-21.49-48-48v0-224c0-8.837-7.163-16-16-16s-16 7.163-16 16v0 352h32c8.837 0 16 7.163 16 16v0 16h144c26.51 0 48 21.49 48 48s-21.49 48-48 48v0h-144v16c0 8.837-7.163 16-16 16v0zM416 896h192c17.673 0 32-14.327 32-32v0h-48c-0.026 0-0.057 0-0.087 0-6.23 0-11.628-3.56-14.271-8.757l-0.042-0.091-27.488-55.152h-76.224l-27.488 55.152c-2.685 5.288-8.083 8.848-14.313 8.848-0.031 0-0.061 0-0.092 0h-47.995c0 17.673 14.327 32 32 32v0zM112 768c-8.837 0-16 7.163-16 16s7.163 16 16 16v0h144v-32zM288 736v96h64v-96zM528 246.624l-32-32v34.752l32 32zM528 326.624l-32-32v41.376h32zM512 150.624l-16 16v2.752l32 32v-34.752zM560 390.624l-22.624-22.624h-50.752l-22.624 22.624v73.376h32v-32h32v32h32zM560 496h-96v112h96zM640 694.624l-54.624-54.624h-146.752l-54.624 54.624v137.376h38.112l27.568-55.152c2.685-5.288 8.083-8.848 14.313-8.848 0.003 0 0.005 0 0.008 0h96c0.026 0 0.057 0 0.087 0 6.23 0 11.628 3.56 14.271 8.757l0.042 0.091 27.488 55.152h38.112v-137.376zM736 736h-64v96h64v-96zM912 800c8.837 0 16-7.163 16-16s-7.163-16-16-16v0h-144v32zM432 736h32v-32h-32v32zM496 736h32v-32h-32v32zM560 736h32v-32h-32v32zM816 416h32v-32h-32v32zM592 192h32v-32h-32v32zM688 208h32v-32h-32v32zM400 192h32v-32h-32v32zM624 288h32v-32h-32v32zM384 304h32v-32h-32v32zM304 224h32v-32h-32v32z" />
<glyph unicode="&#xe91c;" glyph-name="ladder" d="M624 705.904v94.096c0 61.856-50.144 112-112 112s-112-50.144-112-112v0-94.096l-172.56-705.904h-131.44v-32h896v32h-195.44zM338.608 320l11.728 48h97.664v32h-89.84l11.728 48h62.112v32h-54.288l11.728 48h26.56v32h-18.736l18.736 76.64 79.536-325.376-17.424-71.264h-159.072l11.744 48h133.216v32zM553.712 208h159.056l11.744-48h-159.056zM545.888 240l-11.728 48h159.056l11.728-48zM526.4 320l-11.728 48h158.928l11.728-48zM506.848 400l-11.728 48h159.056l11.728-48zM487.296 480l-11.744 48h159.056l11.744-48zM467.728 560l-11.728 48h159.056l11.728-48zM448.176 640l-11.728 48h159.056l11.728-48zM592 720h-160v32h160zM470.288 208l-11.728-48h-159.072l11.728 48zM450.736 128l-11.728-48h-159.008l11.728 48zM512 243.904l59.616-243.904h-119.232zM573.28 128h159.056l11.728-48h-159.056zM432 800c0 44.183 35.817 80 80 80s80-35.817 80-80v0-16h-160zM272.112 48h159.072l-11.744-48h-159.056zM604.56 0l-11.728 48h159.056l11.728-48zM32 0h32v-32h-32v32zM765.968 252.179l31.083 7.604 7.828-32-31.083-7.604-7.828 32zM676.017 620.189l31.085 7.598 82.131-335.996-31.085-7.598-82.131 335.996zM211.318 195.787l93.123 381.108 31.085-7.596-93.123-381.108-31.085 7.596z" />
<glyph unicode="&#xe91d;" glyph-name="laser-level" d="M224 272c-0.040 0-0.088 0-0.136 0-26.457 0-47.904-21.447-47.904-47.904 0-25.587 20.061-46.489 45.313-47.835l0.12-0.005-29.2-189.824 31.616-4.8 20.080 130.368h95.616l-19.312-125.568 31.616-4.8 29.92 194.368h50.272v-192h32v128h96v-128h32v192h50.272l29.92-194.432 31.616 4.8-19.312 125.632h95.616l20.080-130.432 31.616 4.8-29.2 189.888c25.371 1.351 45.432 22.253 45.432 47.84 0 26.457-21.447 47.904-47.904 47.904-0.048 0-0.096 0-0.144 0h-47.993v32h16c8.837 0 16 7.163 16 16v0 96c0 8.837-7.163 16-16 16v0h-70.112l16 32h86.112c8.837 0 16 7.163 16 16v0 64c0 8.837-7.163 16-16 16v0h-96v128h48c8.837 0 16 7.163 16 16v0 64c0 8.837-7.163 16-16 16v0h-48v32c0 35.346-28.654 64-64 64v0h-112v32h-32v-32h-112c-35.346 0-64-28.654-64-64v0h-80c-8.837 0-16-7.163-16-16v0-128c0-8.837 7.163-16 16-16v0h80v-96h-96c-8.837 0-16-7.163-16-16v0-64c0-8.837 7.163-16 16-16v0h86.112l16-32h-70.112c-8.837 0-16-7.163-16-16v0-96c0-8.837 7.163-16 16-16v0h16v-32zM344.416 144h-95.6l4.912 32h95.616zM560 144h-96v32h96zM679.584 144l-4.928 32h95.616l4.912-32zM816 224c0-8.837-7.163-16-16-16v0h-576c-8.837 0-16 7.163-16 16s7.163 16 16 16v0h576c8.837 0 16-7.163 16-16v0zM464 304v-32h-96v32zM560 272v32h96v-32zM528 272h-32v32h32zM720 272h-32v32h32zM720 528h64v-32h-64zM736 752v-32h-32v32zM256 688v96h64v-96zM352 672v144c0 17.673 14.327 32 32 32v0h256c17.673 0 32-14.327 32-32v0-256c-17.673 0-32 14.327-32 32v0 80c0 70.692-57.308 128-128 128s-128-57.308-128-128v0-80c0-17.673-14.327-32-32-32v0zM512 576c-53.019 0-96 42.981-96 96s42.981 96 96 96c53.019 0 96-42.981 96-96v0c-0.055-52.997-43.003-95.945-95.995-96h-0.005zM304 496h-64v32h64zM336 483.776v44.224h16c33.865 0.095 61.528 26.524 63.591 59.883l0.009 0.181c23.507-27.054 57.967-44.060 96.4-44.060s72.893 17.006 96.267 43.904l0.133 0.156c2.073-33.54 29.735-59.969 63.591-60.064h16.009v-44.224l-25.888-51.776h-300.224zM272 400h32v-32h32v32h32v-32h32v32h32v-32h32v32h32v-32h32v32h32v-32h32v32h32v-32h32v32h32v-32h32v32h32v-64h-480zM304 304h32v-32h-32zM512 640c-17.673 0-32 14.327-32 32s14.327 32 32 32v0 32c-35.346 0-64-28.654-64-64s28.654-64 64-64c35.346 0 64 28.654 64 64v0h-32c0-17.673-14.327-32-32-32v0z" />
<glyph unicode="&#xe91e;" glyph-name="measurement" d="M272 48h448v-32h-448v32zM752 48h32v-32h-32v32zM864 208h-768c-8.837 0-16-7.163-16-16v0-144h32v32h752c44.161 0.055 79.945 35.839 80 79.995v192.005c-0.055 44.161-35.839 79.945-79.995 80h-208.005c-0.005 3.309-1.009 6.383-2.725 8.938l0.037-0.058-29.312 43.92v75.2c0.001 0.263 0.001 0.574 0.001 0.885 0 150.221-121.779 272-272 272s-272-121.779-272-272c0-32.964 5.864-64.558 16.605-93.796l-0.607 1.887v-148.976c0-8.837 7.163-16 16-16v0h148.976c27.076-10.073 58.355-15.932 90.995-16h288.029c8.837 0 16 7.163 16 16v0h208c26.51 0 48-21.49 48-48s-21.49-48-48-48v0zM352 800c38.318-0.040 74.505-9.124 106.554-25.232l-1.37 0.624c-23.269-33.636-61.641-55.392-105.094-55.392-0.032 0-0.063 0-0.095 0h0.005c-88.325-0.1-159.9-71.675-160-159.99v-0.010c0-0.027 0-0.058 0-0.090 0-43.453-21.756-81.825-54.969-104.817l-0.423-0.277c-15.519 30.847-24.606 67.227-24.606 105.729 0 132.248 107.208 239.456 239.456 239.456 0.19 0 0.381 0 0.571-0.001h-0.029zM128 336v70.048c19.197-27.608 42.44-50.851 69.153-69.458l0.895-0.59zM152.368 427.024c43.413 28.898 71.632 77.63 71.632 132.953 0 0.008 0 0.016 0 0.024v-0.001c0.082 70.659 57.34 127.918 127.992 128h0.008c0.007 0 0.015 0 0.023 0 55.323 0 104.055 28.219 132.587 71.049l0.365 0.583c64.865-43.602 106.985-116.694 107.024-199.626v-64.006h-32c-8.837 0-16-7.163-16-16v0-32h-80v-32h80v-32h-160v-32h160v-32h-192c-82.939 0.039-156.031 42.159-199.088 106.166l-0.544 0.858zM624 320h-48v144h23.44l24.56-36.8zM864 336h-16v32h-32v-32h-32v32h-32v-32h-32v32h-32v-32h-32v64h208c26.51 0 48-21.49 48-48v0-32.416c-13.14 10.187-29.844 16.353-47.985 16.416h-0.015zM112 112v64h16c17.673 0 32-14.327 32-32s-14.327-32-32-32v0zM912 160c0-26.51-21.49-48-48-48v0h-680.896c5.587 9.129 8.896 20.178 8.896 32s-3.309 22.871-9.051 32.272l0.155-0.272h40.896v-32h32v32h32v-32h32v32h32v-32h32v32h32v-32h32v32h32v-32h32v32h32v-32h32v32h32v-32h32v32h32v-32h32v32h32v-32h32v32h32v-32h32v32h32c0.032 0 0.069 0 0.107 0 18.065 0 34.726 6.012 48.092 16.144l-0.198-0.144zM448 560c0 53.019-42.981 96-96 96s-96-42.981-96-96c0-53.019 42.981-96 96-96v0c52.997 0.055 95.945 43.003 96 95.995v0.005zM352 496c-35.346 0-64 28.654-64 64s28.654 64 64 64c35.346 0 64-28.654 64-64v0c0-35.346-28.654-64-64-64v0zM336 576h32v-32h-32v32zM402.384 892.24l-4.8-31.632c115.835-18.39 208.875-99.721 243.887-207.247l0.609-2.161 30.544 9.6c-39.392 121.22-142.22 211.1-268.316 231.187l-1.924 0.253zM336.784 863.632c10.080 0.496 20.352 0.496 30.4 0l1.6 32c-11.2 0.528-22.4 0.528-33.6 0z" />
<glyph unicode="&#xe91f;" glyph-name="paint-roller" d="M912 800h-48v16c0 26.51-21.49 48-48 48v0h-608c-26.51 0-48-21.49-48-48v0-16h-48c-8.837 0-16-7.163-16-16v0-32h-48c-8.837 0-16-7.163-16-16v0-98.752c0.009-69.174 56.088-125.248 125.264-125.248h338.736v-96h-32c-8.837 0-16-7.163-16-16v0-302.864l-6.784-47.536c-0.458-3.041-0.72-6.551-0.72-10.122 0-39.491 32.013-71.504 71.504-71.504s71.504 32.013 71.504 71.504c0 3.571-0.262 7.080-0.767 10.511l0.047-0.389-6.784 47.536v302.864c0 8.837-7.163 16-16 16v0h-32v112c0 8.837-7.163 16-16 16v0h-354.736c-0.005 0-0.010 0-0.016 0-51.499 0-93.248 41.749-93.248 93.248v0 82.752h32v-32c0-8.837 7.163-16 16-16v0h48v-16c0-26.51 21.49-48 48-48v0h608c26.51 0 48 21.49 48 48v0 16h48c8.837 0 16 7.163 16 16v0 96c0 8.837-7.163 16-16 16v0zM480 112v32h64v-32zM480 176v32h64v-32zM541.84 13.632c-7.466-7.998-18.071-12.983-29.84-12.983s-22.374 4.985-29.818 12.959l-0.022 0.024c-6.001 6.889-9.66 15.956-9.66 25.877 0 1.968 0.144 3.903 0.422 5.794l-0.026-0.215 4.976 34.912h68.256l4.976-34.912c0.252-1.676 0.396-3.611 0.396-5.579 0-9.921-3.659-18.988-9.701-25.924l0.041 0.048zM544 384v-144h-64v144zM128 704v64h32v-64zM832 656c0-8.837-7.163-16-16-16v0h-608c-8.837 0-16 7.163-16 16v0 160c0 8.837 7.163 16 16 16v0h608c8.837 0 16-7.163 16-16v0-160zM896 704h-32v64h32zM352 928h384v-32h-384v32zM768 928h32v-32h-32v32z" />
<glyph unicode="&#xe920;" glyph-name="pantone" d="M208 128c-26.51 0-48-21.49-48-48s21.49-48 48-48c26.51 0 48 21.49 48 48v0c0 26.51-21.49 48-48 48v0zM208 64c-8.837 0-16 7.163-16 16s7.163 16 16 16c8.837 0 16-7.163 16-16v0c0-8.837-7.163-16-16-16v0zM896 61.056v581.888c18.787 6.758 31.979 24.422 31.979 45.168 0 26.448-21.44 47.888-47.888 47.888-0.032 0-0.064 0-0.096 0h-479.995c-0.027 0-0.059 0-0.091 0-26.448 0-47.888-21.44-47.888-47.888 0-20.746 13.192-38.41 31.645-45.063l0.334-0.105v-450.944h-64v432c0 8.837-7.163 16-16 16v0h-192c-8.837 0-16-7.163-16-16v0-544c0.073-61.827 50.174-111.927 111.993-112h672.007c0.027 0 0.059 0 0.091 0 26.448 0 47.888 21.44 47.888 47.888 0 20.746-13.192 38.41-31.645 45.063l-0.334 0.105zM640 418.944c18.741 6.766 31.911 24.361 32 45.045v32.011h192v-224h-224zM864 528h-192v112h192zM896 688c0-8.837-7.163-16-16-16v0h-208v32h208c8.837 0 16-7.163 16-16v0zM640 704v-240c0-8.837-7.163-16-16-16s-16 7.163-16 16v0 96c0 26.51-21.49 48-48 48s-48-21.49-48-48v0-32c0-8.837-7.163-16-16-16s-16 7.163-16 16v0 176zM400 704h48v-32h-48c-8.837 0-16 7.163-16 16s7.163 16 16 16v0zM608 160v-160h-96v160zM480 0h-96v160h96zM288 384h-160v96h160zM288 352v-96h-160v96zM288 608v-96h-160v96zM128 224h160v-32h-80c-0.008 0-0.017 0-0.026 0-31.351 0-59.682-12.931-79.95-33.751l-0.024-0.025zM128 80c0.055 44.161 35.839 79.945 79.995 80h144.005v-160h-144c-44.161 0.055-79.945 35.839-80 79.995v0.005zM736 0h-96v160h96zM416 192v448h32v-112c0-26.51 21.49-48 48-48s48 21.49 48 48v0 32c0 8.837 7.163 16 16 16s16-7.163 16-16v0-96c0.089-20.695 13.259-38.29 31.666-44.95l0.334-0.106v-162.944c0-8.837 7.163-16 16-16v0h240v-176h-96v112c0 8.837-7.163 16-16 16v0zM880 0h-112v32h112c8.837 0 16-7.163 16-16s-7.163-16-16-16v0zM672 400h160v-32h-160v32zM672 336h160v-32h-160v32zM704 464h128v-32h-128v32zM32 560h32v-288h-32v288zM928 384h32v-288h-32v288zM32 240h32v-32h-32v32zM464 800h400v-32h-400v32z" />
<glyph unicode="&#xe921;" glyph-name="phone" d="M265.984 288.512c160.832-198.4 552.832-389.056 647.424-346.304 65.782 29.507 110.773 94.423 110.773 169.848 0 2.884-0.066 5.753-0.196 8.605l0.015-0.405c-4.096 42.688-218.944 173.696-272.96 198.4s-116.224-55.232-145.984-89.6c-31.104-33.024-150.016 67.584-201.408 118.656 0 0-135.168 154.496-104.064 187.584s108.16 99.2 81.152 153.152-163.584 268.8-206.848 271.68c-77.632-0.243-143.664-49.637-168.628-118.683l-0.396-1.253c-37.824-97.984 143.296-471.744 344.704-627.712z" />
<glyph unicode="&#xe922;" glyph-name="pipes" d="M896 912h-48c0 8.837-7.163 16-16 16v0h-96c-8.837 0-16-7.163-16-16v0-16.4c-181.721-8.745-326.855-153.879-335.569-334.794l-0.031-0.806h-0.4c-8.837 0-16-7.163-16-16v0-48c-8.837 0-16-7.163-16-16v0-96c0-8.837 7.163-16 16-16v0h16v-80h-80v16c0 8.837-7.163 16-16 16v0h-96c-8.837 0-16-7.163-16-16v0h-48c-8.837 0-16-7.163-16-16v0h-80v-32h80v-192h-80v-32h80c0-8.837 7.163-16 16-16v0h48c0-8.837 7.163-16 16-16v0h96c8.837 0 16 7.163 16 16v0 16h416v-16c0-8.837 7.163-16 16-16v0h96c8.837 0 16 7.163 16 16v0h48c8.837 0 16 7.163 16 16v0h80v32h-80v192h80v32h-80c0 8.837-7.163 16-16 16v0h-48c0 8.837-7.163 16-16 16v0h-96c-8.837 0-16-7.163-16-16v0-16h-80v80h16c8.837 0 16 7.163 16 16v0 96c0 8.837-7.163 16-16 16v0 48c-0.042 8.276-6.425 15.047-14.535 15.708l-0.057 0.004c6.943 40.359 38.271 71.773 78.015 78.764l0.577 0.084v-14.56c0-8.837 7.163-16 16-16v0h96c8.837 0 16 7.163 16 16v0h48c8.837 0 16 7.163 16 16v0h80v32h-80v192h80v32h-80c0 8.837-7.163 16-16 16v0zM144 48v224h32v-224zM272 32h-64v256h64zM880 272v-224h-32v224zM752 288h64v-256h-64zM624 256h96v-192h-416v192h96c8.837 0 16 7.163 16 16v0 96h192v-96c0-8.837 7.163-16 16-16v0zM640 400h-256v64h256zM400 496v32h224v-32zM609.104 560h-192.288c8.597 163.87 139.314 294.587 302.394 303.151l0.79 0.033v-192.288c-57.933-7.596-103.3-52.963-110.826-110.247l-0.070-0.649zM752 640v256h64v-256zM880 656h-32v224h32zM332.048 643.824l31.088-7.648c28.199 111.972 102.815 202.591 201.677 251.765l2.227 1.003-14.080 28.72c-109.521-54.357-190.361-152.531-220.298-270.972l-0.614-2.868zM352 0h256v-32h-256v32zM640 0h32v-32h-32v32z" />
<glyph unicode="&#xe923;" glyph-name="planning" d="M976 800h-816v64c0 8.837-7.163 16-16 16v0h-48c-35.346 0-64-28.654-64-64v0-704c0-35.346 28.654-64 64-64v0h880c8.837 0 16 7.163 16 16v0 720c0 8.837-7.163 16-16 16v0zM64 816c0 17.673 14.327 32 32 32v0h32v-672h-32c-0.029 0-0.064 0-0.098 0-11.751 0-22.757-3.191-32.199-8.754l0.297 0.162zM960 80h-864c-17.673 0-32 14.327-32 32s14.327 32 32 32v0h48c8.837 0 16 7.163 16 16v0 608h800zM240 128h640c8.837 0 16 7.163 16 16v0 112c0 8.837-7.163 16-16 16v0h-640c-8.837 0-16-7.163-16-16v0-112c0-8.837 7.163-16 16-16v0zM256 240h32v-48h32v48h32v-32h32v32h32v-48h32v48h32v-32h32v32h32v-48h32v48h32v-32h32v32h32v-48h32v48h32v-32h32v32h32v-48h32v48h32v-80h-608zM272 864h32v-32h-32v32zM336 864h272v-32h-272v32zM352 16h560v-32h-560v32zM240 320h464c8.837 0 16 7.163 16 16v0 160c0 8.837-7.163 16-16 16v0h-80v-32h64v-128h-224v32h-32v-32h-176v128h64v32h-64v176h176v-176h-48v-32h48v-32h32v32h96v32h-96v192c0 8.837-7.163 16-16 16v0h-208c-8.837 0-16-7.163-16-16v0-368c0-8.837 7.163-16 16-16v0zM624 720h32v-32h-32v32zM688 720h224v-32h-224v32zM592 656h320v-32h-320v32zM592 592h256v-32h-256v32zM880 528h-96c-8.837 0-16-7.163-16-16v0-176c0-8.837 7.163-16 16-16v0h96c8.837 0 16 7.163 16 16v0 176c0 8.837-7.163 16-16 16v0zM864 352h-64v144h64z" />
<glyph unicode="&#xe924;" glyph-name="shovel" d="M433.104 831.84l-119.28 92.8c-2.682 2.102-6.105 3.371-9.824 3.371s-7.142-1.269-9.859-3.397l0.035 0.026-119.28-92.8c-18.871-14.672-30.896-37.377-30.896-62.891 0-0.086 0-0.173 0-0.259v0.013-176.704c0-8.837 7.163-16 16-16v0h96v-426.672l-44.8-59.728c-1.998-2.641-3.2-5.98-3.2-9.6v0-96c0-8.837 7.163-16 16-16v0h160c8.837 0 16 7.163 16 16v0 96c0 3.62-1.202 6.959-3.229 9.64l0.029-0.040-44.8 59.728v426.672h96c8.837 0 16 7.163 16 16v0 176.704c0 0.073 0 0.159 0 0.245 0 25.514-12.025 48.219-30.717 62.757l-0.179 0.134zM288 528h32v-304h-32zM288 192h32v-32h-32zM320 560h-32v48c0 8.837 7.163 16 16 16s16-7.163 16-16v0zM240 0v32h128v-32zM368 64h-128v10.672l40 53.328h48l40-53.328zM432 608h-80c0 26.51-21.49 48-48 48s-48-21.49-48-48v0h-80v160.704c0 0.049 0 0.107 0 0.166 0 15.303 7.211 28.921 18.421 37.642l0.107 0.080 109.472 85.136 109.472-85.136c11.317-8.801 18.528-22.42 18.528-37.722 0-0.058 0-0.117 0-0.175v0.009zM192 512h32v-256h-32v256zM768 640h32v-256h-32v256zM192 224h32v-32h-32v32zM832 320h-96v426.672l44.8 59.728c1.998 2.641 3.2 5.98 3.2 9.6v0 96c0 8.837-7.163 16-16 16v0h-160c-8.837 0-16-7.163-16-16v0-96c0-3.62 1.202-6.959 3.229-9.64l-0.029 0.040 44.8-59.728v-426.672h-96c-26.51 0-48-21.49-48-48v0-288c0-8.837 7.163-16 16-16v0h352c8.837 0 16 7.163 16 16v0 288c0 26.51-21.49 48-48 48v0zM704 368h-32v304h32zM704 704h-32v32h32zM672 336h32v-48c0-8.837-7.163-16-16-16s-16 7.163-16 16v0zM752 896v-32h-128v32zM624 832h128v-10.672l-40-53.328h-48l-40 53.328zM848 0h-320v272c0 8.837 7.163 16 16 16v0h96c0-26.51 21.49-48 48-48s48 21.49 48 48v0h96c8.837 0 16-7.163 16-16v0zM784 192h32v-128h-32v128zM720 192h32v-128h-32v128zM560 192h32v-128h-32v128zM624 192h32v-128h-32v128z" />
<glyph unicode="&#xe925;" glyph-name="trowel" d="M272 896c-69.681-0.263-127.264-51.72-137.109-118.7l-0.091-0.756-38.656-278.4c-0.098-0.666-0.154-1.434-0.154-2.216 0-6.696 4.113-12.432 9.951-14.817l0.107-0.039 149.952-59.904v-37.168h-32c-8.837 0-16-7.163-16-16v0-304c0-35.346 28.654-64 64-64s64 28.654 64 64v0 304c0 8.837-7.163 16-16 16v0h-32v37.168l149.952 59.968c5.945 2.424 10.058 8.16 10.058 14.856 0 0.782-0.056 1.55-0.164 2.302l0.010-0.086-38.656 278.4c-9.965 67.709-67.538 119.133-137.173 119.392h-0.027zM304 64c0-17.673-14.327-32-32-32s-32 14.327-32 32v0 224h64zM304 320h-64v32h64zM288 455.632v104.368h-32v-104.368l-126.4 50.576 36.944 265.936c7.437 52.191 51.828 91.878 105.488 91.878s98.051-39.687 105.421-91.31l0.067-0.568 36.88-265.936zM912 32c8.837 0 16 7.163 16 16v0 800c0 8.837-7.163 16-16 16v0h-384c-8.837 0-16-7.163-16-16v0-800c0-8.837 7.163-16 16-16v0zM544 832h352v-768h-352zM768 640h-32v128h-32v-128h-32c-8.837 0-16-7.163-16-16v0-304c0.114-29.562 20.254-54.389 47.553-61.627l0.447-0.101v-130.272h32v130.272c27.746 7.339 47.886 32.166 48 61.715v304.013c0 8.837-7.163 16-16 16v0zM688 608h64v-32h-64zM752 320c0-17.673-14.327-32-32-32s-32 14.327-32 32v0 224h64zM144 320h32v-256h-32v256zM960 640h32v-368h-32v368zM960 704h32v-32h-32v32z" />
<glyph unicode="&#xe926;" glyph-name="vise" d="M32 0h32v-32h-32v32zM895.68 627.2c-1.541 7.355-7.973 12.8-15.677 12.8-0.001 0-0.002 0-0.003 0h-160v16c0 8.837-7.163 16-16 16v0h-64c-8.837 0-16-7.163-16-16v0-192c0-8.837 7.163-16 16-16v0h64c8.837 0 16 7.163 16 16v0 16h48v-160h-224c-7.023-0.006-12.987-4.535-15.135-10.831l-0.033-0.113-7.024-21.056h-153.808v192h48v-16c0-8.837 7.163-16 16-16v0h64c8.837 0 16 7.163 16 16v0 192c0 8.837-7.163 16-16 16v0h-64c-8.837 0-16-7.163-16-16v0-16h-160c-8.837 0-16-7.163-16-16v0-224h-48c-8.837 0-16-7.163-16-16v0-32h-32v66.272c27.823 7.359 48 32.307 48 61.968 0 35.346-28.654 64-64 64s-64-28.654-64-64c0-29.66 20.177-54.608 47.553-61.867l0.447-0.101v-66.272h-32c-26.51 0-48-21.49-48-48s21.49-48 48-48v0h32v-66.272c-27.823-7.359-48-32.307-48-61.968 0-35.346 28.654-64 64-64s64 28.654 64 64c0 29.66-20.177 54.608-47.553 61.867l-0.447 0.101v66.272h32v-32c0-8.837 7.163-16 16-16v0h48v-32c0-8.837 7.163-16 16-16v0h223.136l-10.656-32h-148.48c-8.837 0-16-7.163-16-16v0-64c0-8.837 7.163-16 16-16v0h96v-32h-320v-32h896v32h-160v32h96c8.837 0 16 7.163 16 16v0 48h48v32h-192v32h32v32h-32v16c0 8.837-7.163 16-16 16v0h-64c-8.837 0-16-7.163-16-16v0-16h-32v-32h32v-32h-201.808l53.344 160h228.464c8.837 0 16 7.163 16 16v0 192c0 8.837-7.163 16-16 16v0h-64v96h146.896l61.424-307.2c1.541-7.355 7.973-12.8 15.677-12.8 0.001 0 0.002 0 0.003 0h48v32h-34.896zM688 480h-32v160h32zM448 640h32v-160h-32zM96 480c0 17.673 14.327 32 32 32s32-14.327 32-32c0-17.673-14.327-32-32-32v0c-17.673 0-32 14.327-32 32v0zM160 128c0-17.673-14.327-32-32-32s-32 14.327-32 32c0 17.673 14.327 32 32 32v0c17.673 0 32-14.327 32-32v0zM80 288c-8.837 0-16 7.163-16 16s7.163 16 16 16v0h96v-32zM208 240v128h32v-128zM800 0h-352v32h352zM912 64h-576v32h576zM736 192h32v-64h-32zM272 192v416h144v-96h-64c-8.837 0-16-7.163-16-16v0-224c0-8.837 7.163-16 16-16v0h159.136l-21.328-64zM544 736h320v-32h-320v32zM896 736h32v-32h-32v32z" />
<glyph unicode="&#xe927;" glyph-name="warning" d="M528 736h-32c-17.673 0-32-14.327-32-32v0-224c0-17.673 14.327-32 32-32v0h32c17.673 0 32 14.327 32 32v0 224c0 17.673-14.327 32-32 32v0zM496 480v224h32v-224zM528 416h-32c-17.673 0-32-14.327-32-32v0-32c0-17.673 14.327-32 32-32v0h32c17.673 0 32 14.327 32 32v0 32c0 17.673-14.327 32-32 32v0zM496 352v32h32v-32zM578.56 840.992c-14.552 21.6-38.919 35.618-66.56 35.618s-52.008-14.018-66.379-35.333l-0.181-0.284-328.432-492.624c-8.414-12.468-13.431-27.832-13.431-44.368 0-44.183 35.817-80 80-80 0.002 0 0.005 0 0.007 0h248.416v-48c0-8.837 7.163-16 16-16v0h16v-192h32v192h32v-192h32v192h16c8.837 0 16 7.163 16 16v0 48h248.416c0.002 0 0.004 0 0.007 0 44.183 0 80 35.817 80 80 0 16.536-5.017 31.9-13.611 44.653l0.181-0.285zM560 192h-96v32h96zM882.736 281.344c-8.081-15.184-23.806-25.346-41.904-25.346-0.146 0-0.293 0.001-0.439 0.002h-656.81c-0.018 0-0.039 0-0.061 0-26.51 0-48 21.49-48 48 0 9.923 3.011 19.142 8.169 26.795l-0.109-0.171 328.416 492.624c8.731 12.96 23.351 21.371 39.936 21.371s31.205-8.411 39.828-21.2l0.108-0.171 328.48-492.624c5.12-7.449 8.177-16.664 8.177-26.592 0-8.319-2.147-16.137-5.916-22.93l0.123 0.242zM674.7 767.125l26.626 17.75 186.672-280.008-26.626-17.75-186.672 280.008zM882.684 455.118l26.626 17.75 16.002-24.003-26.626-17.75-16.002 24.003zM192 192h192v-32h-192v32z" />
<glyph unicode="&#xe928;" glyph-name="wheelbarrow" d="M32 0h32v-32h-32v32zM208.227 412.532l31.392 6.272 63.962-320.136-31.392-6.272-63.962 320.136zM944 416c26.51 0 48 21.49 48 48s-21.49 48-48 48v0h-651.312l-20.896 130.528c-1.263 7.68-7.851 13.468-15.792 13.472h-32v16c0 8.837-7.163 16-16 16v0h-128c-26.51 0-48-21.49-48-48s21.49-48 48-48v0h128c8.837 0 16 7.163 16 16v0 16h18.352l61.856-386.528c0.987-6.009 5.207-10.832 10.783-12.672l0.113-0.032 38.768-12.464 22.992-126.496c5.929-30.632 32.532-53.448 64.465-53.448 30.428 0 56.017 20.717 63.433 48.814l0.103 0.457 19.008 76.016 118.4-38.048c-1.445-7.185-2.273-15.445-2.273-23.899 0-38.13 16.83-72.328 43.466-95.573l0.15-0.128h-587.616v-32h896v32h-139.616c26.751 23.552 43.54 57.872 43.54 96.114 0 70.613-57.243 127.856-127.856 127.856-51.037 0-95.090-29.904-115.593-73.146l-0.331-0.776-55.696 17.952 238.192 184h93.36v32h-51.952l41.408 32zM192 624h-112c-8.837 0-16 7.163-16 16s7.163 16 16 16v0h112zM768 192c0.237 0.002 0.517 0.003 0.797 0.003 53.461 0 96.8-43.339 96.8-96.8s-43.339-96.8-96.8-96.8c-53.461 0-96.8 43.339-96.8 96.8 0 5.115 0.397 10.137 1.161 15.037l-0.070-0.545 31.28-10.048c0-1.232-0.368-2.4-0.368-3.648-0.001-0.13-0.001-0.283-0.001-0.436 0-35.585 28.847-64.432 64.432-64.432s64.432 28.847 64.432 64.432c0 35.585-28.847 64.432-64.432 64.432-22.751 0-42.748-11.792-54.213-29.597l-0.154-0.255-31.2 10.032c16.316 31.001 48.294 51.786 85.131 51.824h0.005zM763.104 80.768l9.792 30.4-26.24 8.432c5.622 5.058 13.1 8.151 21.3 8.151 17.62 0 31.904-14.284 31.904-31.904s-14.284-31.904-31.904-31.904c-15.266 0-28.027 10.722-31.165 25.045l-0.039 0.211zM944 480c8.837 0 16-7.163 16-16s-7.163-16-16-16v0h-641.072l-5.12 32zM473.856 89.392c-3.894-14.564-16.97-25.115-32.511-25.115-16.308 0-29.902 11.618-32.958 27.029l-0.035 0.214-19.952 109.68 104.976-33.728zM823.712 384h-215.712v-32h174.304l-222.816-172.176-225.232 72.4-26.208 163.776h557.072zM464 576h320v-32h-320v32zM544 384h32v-32h-32v32z" />
<glyph unicode="&#xe929;" glyph-name="arrow-left2" horiz-adv-x="310" d="M287.916-63.777c-8.416 0.014-15.722 4.755-19.405 11.71l-0.058 0.119-265.82 489.458c-1.686 3.065-2.679 6.717-2.679 10.602s0.992 7.537 2.737 10.718l-0.058-0.116 265.82 489.681c3.876 6.936 11.174 11.548 19.548 11.548 3.841 0 7.455-0.97 10.611-2.679l-0.118 0.058c6.977-3.911 11.615-11.259 11.615-19.691 0-3.906-0.995-7.58-2.746-10.781l0.059 0.117-260.017-478.745 260.017-478.968c1.673-3.055 2.657-6.694 2.657-10.562 0-8.389-4.629-15.698-11.472-19.51l-0.114-0.058c-3-1.823-6.626-2.902-10.505-2.902-0.026 0-0.052 0-0.078 0h0.004z" />
<glyph unicode="&#xe92a;" glyph-name="arrow-right2" horiz-adv-x="311" d="M22.542-63.777c0.030 0 0.066 0 0.102 0 8.442 0 15.775 4.743 19.481 11.71l0.058 0.119 265.82 489.458c1.686 3.065 2.679 6.717 2.679 10.602s-0.992 7.537-2.737 10.718l0.058-0.116-265.82 489.681c-3.65 7.649-11.322 12.84-20.206 12.84-12.326 0-22.319-9.993-22.319-22.319 0-4.432 1.292-8.563 3.52-12.036l-0.053 0.089 260.017-478.745-260.017-478.968c-1.673-3.055-2.657-6.694-2.657-10.562 0-8.389 4.629-15.698 11.472-19.51l0.114-0.058c2.965-1.822 6.556-2.902 10.4-2.902 0.032 0 0.063 0 0.095 0h-0.005z" />
</font>
</defs>
</svg>
